<?xml version="1.0" standalone="no"?>
<!DOCTYPE svg PUBLIC "-//W3C//DTD SVG 1.1//EN" "http://www.w3.org/Graphics/SVG/1.1/DTD/svg11.dtd" >
<svg xmlns="http://www.w3.org/2000/svg">
<metadata>
Created by FontForge 20120731 at Mon Apr 24 17:01:15 2017
 By admin
</metadata>
<defs>
<font id="iconfont" horiz-adv-x="1024" >
  <font-face 
    font-family="iconfont"
    font-weight="500"
    font-stretch="normal"
    units-per-em="1024"
    panose-1="2 0 6 3 0 0 0 0 0 0"
    ascent="896"
    descent="-128"
    x-height="792"
    bbox="-0.0326087 -128 2136 896"
    underline-thickness="0"
    underline-position="0"
    unicode-range="U+0078-E669"
  />
<missing-glyph 
 />
    <glyph glyph-name=".notdef" 
 />
    <glyph glyph-name=".notdef" 
 />
    <glyph glyph-name=".null" horiz-adv-x="0" 
 />
    <glyph glyph-name="nonmarkingreturn" horiz-adv-x="341" 
 />
    <glyph glyph-name="x" unicode="x" horiz-adv-x="1001" 
d="M281 543q-27 -1 -53 -1h-83q-18 0 -36.5 -6t-32.5 -18.5t-23 -32t-9 -45.5v-76h912v41q0 16 -0.5 30t-0.5 18q0 13 -5 29t-17 29.5t-31.5 22.5t-49.5 9h-133v-97h-438v97zM955 310v-52q0 -23 0.5 -52t0.5 -58t-10.5 -47.5t-26 -30t-33 -16t-31.5 -4.5q-14 -1 -29.5 -0.5
t-29.5 0.5h-32l-45 128h-439l-44 -128h-29h-34q-20 0 -45 1q-25 0 -41 9.5t-25.5 23t-13.5 29.5t-4 30v167h911zM163 247q-12 0 -21 -8.5t-9 -21.5t9 -21.5t21 -8.5q13 0 22 8.5t9 21.5t-9 21.5t-22 8.5zM316 123q-8 -26 -14 -48q-5 -19 -10.5 -37t-7.5 -25t-3 -15t1 -14.5
t9.5 -10.5t21.5 -4h37h67h81h80h64h36q23 0 34 12t2 38q-5 13 -9.5 30.5t-9.5 34.5q-5 19 -11 39h-368zM336 498v228q0 11 2.5 23t10 21.5t20.5 15.5t34 6h188q31 0 51.5 -14.5t20.5 -52.5v-227h-327z" />
    <glyph glyph-name="sousuo" unicode="&#xa020;" 
d="M1016 -42l-292 294q58 78 74.5 173t-12.5 188t-99 164q-57 57 -132 87t-151 30t-151 -30t-132 -87q-77 -77 -104.5 -180.5t0 -206.5t104.5 -180q70 -70 163 -99t188 -12.5t173 75.5l292 -295q8 -7 18 -7t17 7l44 44q7 7 7 17.5t-7 17.5zM195 282q-86 86 -86 208t86 208
t208 86t208 -86t86 -208t-86 -208t-208 -86t-208 86z" />
    <glyph glyph-name="yingyong" unicode="&#xa033;" 
d="M778 896h-486q-102 0 -174 -72t-72 -174v-492q0 -102 72 -174t174 -72h486q102 0 174 72t72 174v492q0 102 -72 174t-174 72zM124 650q0 70 49.5 119t118.5 49h486q70 0 119 -49t49 -119v-29h-822v29zM778 -11h-486q-69 0 -118.5 49.5t-49.5 119.5v385h822v-385
q0 -70 -49 -119.5t-119 -49.5zM263 413h544v-77h-544v77zM263 206h544v-78h-544v78z" />
    <glyph glyph-name="msnui-cart" unicode="&#xa055;" horiz-adv-x="1031" 
d="M366 149q18 0 33.5 -6.5t27 -18t18.5 -27t7 -33t-7 -33.5t-18.5 -27.5t-27 -18t-33.5 -6.5t-33.5 6.5t-27 18t-18.5 27.5t-7 33.5t7 33t18.5 27t27 18t33.5 6.5zM749 147q17 0 33.5 -6.5t28 -18t18 -27t6.5 -33t-6.5 -33t-18 -27t-28 -18.5t-33.5 -7t-33 7t-27.5 18.5
t-18.5 27t-7 33t7 33t18.5 27t27.5 18t33 6.5zM903 669q26 0 40.5 -7t20.5 -17t5.5 -21.5t-3.5 -19.5t-12 -34t-19.5 -57t-21 -61t-17.5 -48q-12 -36 -30 -50.5t-44 -14.5h-483l13 -83h464q44 0 44 -37q0 -19 -8.5 -32.5t-34.5 -13.5h-482q-18 0 -30.5 8.5t-21 22t-13.5 29
t-7 29.5q-1 5 -5.5 26.5t-10.5 53t-13 70.5t-15 79q-17 93 -39 207h-69q-14 0 -23 6.5t-15 16.5t-8.5 21t-2.5 20q0 18 12.5 30t33.5 11h93q18 0 29 -5.5t17.5 -13.5t9.5 -17l5 -15q2 -8 3.5 -21t3.5 -27q3 -17 6 -35h628zM869 587l-575 2l32 -166l481 -1z" />
    <glyph glyph-name="xinxi2" unicode="&#xa005;" 
d="M874 592v-396q0 -55 -39 -87.5t-98 -32.5h-483q-59 0 -98 32.5t-39 87.5v396q0 8 2 16.5t10.5 15t21.5 3.5q13 -12 101 -94t150.5 -132.5t85.5 -49.5q14 0 47 21.5t77.5 58.5t83.5 70.5t84.5 73t59.5 52.5q16 4 26.5 -6.5t7.5 -28.5v0zM487 386q-19 -1 -94 64t-141 129
t-66 65h619q-5 -6 -15 -15l-40 -36t-57.5 -51t-62.5 -54t-62 -51.5t-50 -36t-31 -14.5v0z" />
    <glyph glyph-name="tongji" unicode="&#xa023;" 
d="M537 442q3 307 0 307q132 0 219 -87.5t87 -219.5h-306v0zM818 378q0 -90 -44.5 -167t-121 -121.5t-166.5 -44.5t-166 44.5t-120.5 121.5t-44.5 167.5t44.5 167t121 121.5t165.5 45q9 0 26 -2v-294h304q2 -19 2 -38v0zM791 389h-305v297q-126 0 -215.5 -90t-89.5 -217.5
t89.5 -217.5t216 -90t216 90t89.5 217l-1 18v-7v0v0z" />
    <glyph glyph-name="yingyong1" unicode="&#xa001;" 
d="M448 526q0 -37 -26.5 -63.5t-63.5 -26.5h-204q-37 0 -63.5 26.5t-26.5 63.5v204q0 37 26.5 63.5t63.5 26.5h204q37 0 63.5 -26.5t26.5 -63.5v-204zM960 14q0 -37 -26.5 -63.5t-63.5 -26.5h-204q-37 0 -63.5 26.5t-26.5 63.5v204q0 37 26.5 63.5t63.5 26.5h204
q37 0 63.5 -26.5t26.5 -63.5v-204zM960 526q0 -37 -26.5 -63.5t-63.5 -26.5h-204q-37 0 -63.5 26.5t-26.5 63.5v204q0 37 26.5 63.5t63.5 26.5h204q37 0 63.5 -26.5t26.5 -63.5v-204zM448 14q0 -37 -26.5 -63.5t-63.5 -26.5h-204q-37 0 -63.5 26.5t-26.5 63.5v204
q0 37 26.5 63.5t63.5 26.5h204q37 0 63.5 -26.5t26.5 -63.5v-204z" />
    <glyph glyph-name="shalou2" unicode="&#xa056;" 
d="M918 -1h-60v83q0 95 -47 176.5t-127 128.5q80 47 127 128t47 176v104h60q17 0 28.5 11.5t11.5 28t-11.5 28t-28.5 11.5h-831q-16 0 -27.5 -11.5t-11.5 -28t11.5 -28t27.5 -11.5h64v-104q0 -95 47 -176t127 -128q-80 -47 -127 -128.5t-47 -176.5v-83h-64
q-17 0 -28.5 -11.5t-11.5 -27.5t11.5 -28t28.5 -12h831q16 0 27.5 12t11.5 28t-11.5 27.5t-27.5 11.5zM780 -1h-551v83q0 94 58 168.5t149 97.5q7 2 14 6v0l1 1h1q1 1 2 3v0q1 0 2 1v0q0 1 1 1v1q1 0 1 1v0l1 1v0l3 3v1q0 1 0.5 1t0.5 0.5v0.5q0 1 1 2v0q5 12 2 25t-13 21v0
l-0.5 0.5t-1.5 0.5v0q-6 5 -14 7q-91 23 -149.5 97.5t-58.5 168.5v104h551v-104q0 -94 -58 -168.5t-150 -97.5q-15 -4 -23 -16t-7 -26v-1v-1l1 -1v-1v-1v-1q0 -1 1 -2v0v-2v0l1 -1v-1l1 -1v0q1 -4 4 -7v0l1 -1v0q0 -1 0.5 -1.5t1 -0.5t0.5 -0.5t1 -0.5v0q5 -6 13 -9v0
q1 0 1.5 -0.5l0.5 -0.5h0.5h0.5h2q92 -24 150 -98t58 -169v-83v0z" />
    <glyph glyph-name="shanchu" unicode="&#xa017;" 
d="M510 896q-139 0 -256 -68t-185.5 -185.5t-68.5 -256.5t68.5 -256.5t185.5 -185.5t256 -68q211 0 360.5 149.5t149.5 360.5q0 139 -68 256t-185.5 185.5t-256.5 68.5zM719 244q14 -13 14 -33t-14 -34t-34 -14t-33 14l-142 141l-141 -141q-14 -14 -34 -14t-34 14t-14 33.5
t14 33.5l141 142l-141 141q-14 14 -14 34t14 34t34 14t34 -14l141 -141l142 141q14 14 33.5 14t33.5 -14t14 -34t-14 -34l-141 -141z" />
    <glyph glyph-name="peifaxinxi" unicode="&#xa037;" 
d="M448 -8l109 149l-109 31v-180v0zM63 343l310 -94l381 324l-295 -349l331 -102l170 655z" />
    <glyph glyph-name="biaoqian" unicode="&#xa016;" 
d="M994 383q53 -62 1 -120l-371 -373q-12 -9 -26 -13.5t-28.5 -3t-27 6t-20.5 13.5q-134 134 -240 241l-88 90q-45 43 -79 77q-35 36 -56 57l-22 23q-3 2 -8.5 10t-11.5 20.5t-10.5 28t-4.5 33.5v21v42q1 26 2 56v61q1 73 3 161q2 15 5 29.5t15 27.5q12 12 27 16t27 4h364
q3 1 17 0.5t18 -2.5q7 -3 16 -9t15 -12zM177 647q31 0 52.5 21.5t21.5 52.5t-21.5 52.5t-52.5 21.5t-53.5 -21.5t-22.5 -52.5t22.5 -52.5t53.5 -21.5v0z" />
    <glyph glyph-name="20" unicode="&#xa041;" 
d="M0 542h1024v-124h-1024v124zM126 418h128v-488h-128v488zM446 418h128v-476h-128v476zM768 418h124v-476h-124v476zM0 32h1024v-128h-1024v128zM1024 676l-514 188l-510 -188v-68h1024v68z" />
    <glyph glyph-name="yingyong2" unicode="&#xa010;" 
d="M418 149v0v141h-142q-58 0 -99.5 -41t-41.5 -99.5t41.5 -100t100 -41.5t100 41.5t41.5 99.5v0zM488 149q0 -88 -62 -150t-149.5 -62t-149.5 62t-62 150t62 150t149 62h212v-71v-141zM606 149v141h141q59 0 100 -41t41 -99.5t-41 -100t-99.5 -41.5t-100 41.5t-41.5 99.5z
M535 149q0 -88 62 -150t150 -62t150 62t62 150t-62 150t-150 62h-212v-212zM418 620v-141h-142q-58 0 -99.5 41t-41.5 99.5t41.5 100t100 41.5t100 -41.5t41.5 -99.5zM488 620q0 87 -62 149.5t-149.5 62.5t-149.5 -62.5t-62 -150t62 -149.5t149 -62h212v71v141zM606 620
v-141h141q59 0 100 41t41 99.5t-41 100t-99.5 41.5t-100 -41.5t-41.5 -99.5zM535 620v0q0 87 62 149.5t150 62.5t150 -62.5t62 -150t-62 -149.5t-150 -62h-212v212z" />
    <glyph glyph-name="yinxingqia" unicode="&#xa051;" 
d="M630 250h66v-76h-66v76zM711 250h67v-76h-67v76zM797 250h66v-76h-66v76zM64 130q0 -33 24 -57t57 -24h734q33 0 57 24t24 57v341h-896v-341zM879 719h-734q-33 0 -57 -24t-24 -57v-90h896v90q0 33 -24 57t-57 24z" />
    <glyph glyph-name="jingxiang" unicode="&#xa040;" 
d="M876 673l-59 72q-19 23 -49 23h-512q-30 0 -49 -23l-59 -72q-20 -23 -20 -54v-534q0 -35 25 -60t60 -25h598q35 0 60 25t25 60v534q0 31 -20 54zM512 149l-235 235h150v85h170v-85h150zM218 683l35 42h512l40 -42h-587z" />
    <glyph glyph-name="liuliang" unicode="&#xa024;" 
d="M969 342l-197 1q-8 -2 -15 2t-9 12l-30 94l-93 -436q-1 -23 -14 -23h-33q-8 -2 -15 2t-9 11l-115 569l-87 -411q-2 -8 -10 -13t-16 -3h-30q-9 -3 -16 1.5t-9 12.5l-59 181h-157q-8 0 -14 6t-6 14v40q0 8 6 14t14 6h196q21 1 25 -11l30 -95l85 446q4 14 18 14h42
q8 2 15 -2t9 -11l114 -564l84 405q3 8 8.5 13t12.5 3h34q8 2 15.5 -2t9.5 -12l58 -184h158q8 0 14 -6t6 -14v-40q0 -8 -6 -14t-14 -6z" />
    <glyph glyph-name="duanxin" unicode="&#xa053;" 
d="M228 422.5q0 -26.5 19 -45.5t45.5 -19t45 19t18.5 45.5t-18.5 45t-45 18.5t-45.5 -18.5t-19 -45zM454 422.5q0 -26.5 19 -45.5t45.5 -19t45 19t18.5 45.5t-18.5 45t-45 18.5t-45.5 -18.5t-19 -45zM683 422.5q0 -26.5 18.5 -45.5t45 -19t45.5 19t19 45.5t-19 45
t-45.5 18.5t-45 -18.5t-18.5 -45zM284 -45q-19 0 -32 13t-13.5 32t13.5 32l79 81q16 16 40 13q103 -17 139 -17q114 0 211 42t153 114.5t56 159t-56 159t-153 114.5t-211.5 42t-211 -42t-152.5 -114.5t-56 -158.5q3 -116 102 -205q29 -25 43 -32q16 -10 20 -29t-8 -35
q-9 -16 -28 -20t-36 7q-29 20 -53 40q-63 57 -96.5 127t-33.5 147q0 110 68.5 204t187 148.5t256.5 54.5t256.5 -54.5t187 -148.5t68.5 -204.5t-68.5 -204t-187 -148.5t-256.5 -55q-53 0 -132 15l-64 -64q-13 -13 -32 -13v0z" />
    <glyph glyph-name="gongzuozhuomian" unicode="&#xa009;" 
d="M910 776h-756q-17 0 -28.5 -12t-11.5 -29v-540q0 -17 11.5 -28.5t28.5 -11.5h257v-68l-54 -54v-13h351v13l-54 54v68h256q17 0 29 11.5t12 28.5v540q0 17 -12 29t-29 12v0v0zM897 263h-729v459h729v-459zM897 263z" />
    <glyph glyph-name="xuexiaoguanfang" unicode="&#xa038;" 
d="M147 353v-396q0 -30 21 -51t51 -21h272q-2 7 -2 14v292q0 30 24.5 51t59.5 21h71q35 0 60 -21t25 -51v-292q0 -7 -2 -14h84q31 0 52 21t21 51v388l-369 290zM997 500l-136 113v8v158q0 30 -21 51t-50 21h-54q-30 0 -51 -21t-21 -51v-3l-108 90q-20 17 -47 17t-47 -17
l-434 -353q-24 -19 -27.5 -50.5t16 -56t50.5 -28t55 16.5l386 314l393 -327q24 -20 55 -17t51 27.5t17 56t-27 51.5z" />
    <glyph glyph-name="mysqlshujuku" unicode="&#xa028;" 
d="M456 832q-180 0 -286 -40t-106 -100v-84q0 -60 106 -100t286 -40q121 0 217.5 19t149.5 50.5t53 70.5v84q0 38 -53 70t-149.5 51t-217.5 19zM405 133q-232 9 -321 97q-20 -20 -20 -42v-112q0 -60 106 -100t286 -40q34 0 73 2q-49 35 -81 85.5t-43 109.5zM471 384h-7.5
h-8.5q-273 0 -371 98q-20 -20 -20 -42v-112q0 -55 90 -93.5t246 -45.5q1 110 71 195zM708 440q-104 0 -178 -74t-74 -178t74 -178t178 -74t178 74t74 178t-74 178t-178 74zM719 88h-26v133q0 16 2 39v0q-4 -14 -6 -20l-66 -152h-15l-65 151q-3 5 -6 21h-1q1 -14 1 -41v-131
h-25v200h35l59 -137q7 -16 9 -25h1q7 19 10 25l60 137h33v-200zM837 162v-74h-26v73l-64 127h30l43 -88q0 -1 5 -13v0q2 5 6 12l45 89h27z" />
    <glyph glyph-name="heilongjiangtubiao06" unicode="&#xa052;" 
d="M919 655h-239q-4 65 -49.5 107t-109.5 42t-109.5 -42t-48.5 -107h-258q-17 0 -29 -12t-12 -29v-609q0 -17 12 -29t29 -12h814q17 0 29 12t12 29v351v258q0 17 -12 29t-29 12v0zM517 739q41 0 65.5 -21.5t26.5 -62.5h-184q2 41 26 62.5t66 21.5v0zM885 38h-745v318h258
v-63v0v-53h250v53v0v63h237v-318zM456 291v65h130v-65h-130zM884 440h-740v148h740v-148zM904 430z" />
    <glyph glyph-name="save" unicode="&#xa022;" 
d="M340 112h108v-176h-108v176zM939 832h-854q-8 0 -14 -6t-6 -14v-739l137 -135h62v260h411v-260v0v0h264q8 0 14 6t6 14v854q0 8 -6 14t-14 6zM816 382h-608v401h608v-401zM340 -62h108v0h-108v0z" />
    <glyph glyph-name="add" unicode="&#xa012;" 
d="M810 342h-256v-256h-84v256h-256v84h256v256h84v-256h256v-84z" />
    <glyph glyph-name="arrowdropdown" unicode="&#xa013;" 
d="M298 470h428l-214 -214z" />
    <glyph glyph-name="arrowdropup" unicode="&#xa014;" 
d="M298 298l214 214l214 -214h-428v0z" />
    <glyph glyph-name="clear" unicode="&#xa019;" 
d="M810 622l-238 -238l238 -238l-60 -60l-238 238l-238 -238l-60 60l238 238l-238 238l60 60l238 -238l238 238z" />
    <glyph glyph-name="delete" unicode="&#xa015;" 
d="M810 726v-86h-596v86h148l44 42h212l44 -42h148zM256 86v512h512v-512q0 -34 -26 -60t-60 -26h-340q-34 0 -60 26t-26 60v0z" />
    <glyph glyph-name="edit" unicode="&#xa018;" 
d="M884 596l-78 -78l-160 160l78 78q12 12 30 12t30 -12l100 -100q12 -12 12 -30t-12 -30zM128 160l472 472l160 -160l-472 -472h-160v160z" />
    <glyph glyph-name="send" unicode="&#xa004;" 
d="M86 0v298l640 86l-640 86v298l896 -384z" />
    <glyph glyph-name="timer" unicode="&#xa027;" 
d="M512 42q124 0 211 88t87 212t-87 211t-211 87t-211 -87t-87 -211t87 -212t211 -88zM812 580q84 -106 84 -238q0 -158 -112 -271t-272 -113t-272 113t-112 271t112 271t272 113q130 0 240 -86l60 62q32 -26 60 -60zM470 298v256h84v-256h-84zM640 854v-86h-256v86h256z
" />
    <glyph glyph-name="rongheyewu" unicode="&#xa026;" 
d="M516 30l-353 249l-66 -47l419 -282l419 282l-66 47zM516 190l-350 236l-69 -47l419 -282l419 282l-69 47zM935 552l-419 282l-419 -282l419 -281z" />
    <glyph glyph-name="peizhiconfiguration15" unicode="&#xa007;" 
d="M46 500q-19 0 -32.5 -13.5t-13.5 -32.5v-140q0 -19 13.5 -32.5t32.5 -13.5h137q6 -18 14 -35l-96 -96q-14 -14 -14 -33t14 -33l98 -98q14 -14 33 -14t33 14l97 96q16 -8 34 -14v-136q0 -20 13.5 -33.5t32.5 -13.5h140q19 0 32.5 13.5t13.5 33.5v136q18 6 34 14l97 -96
q14 -14 33 -14t33 14l98 98q14 14 14 33t-14 33l-96 97q8 16 14 34h137q19 0 32.5 13.5t13.5 32.5v140q0 19 -13.5 32.5t-32.5 13.5h-137q-6 18 -14 34l96 97q14 14 14 33t-14 33l-98 98q-14 14 -33 14t-33 -14l-96 -96q-17 8 -35 14v137q0 19 -13.5 32.5t-32.5 13.5h-140
q-19 0 -32.5 -13.5t-13.5 -32.5v-137q-18 -6 -35 -14l-96 96q-14 14 -33 14t-33 -14l-98 -98q-14 -14 -14 -33t14 -33l96 -96q-8 -17 -14 -35h-137v0zM511.5 617q96.5 0 164.5 -68t68 -164.5t-68 -164.5t-164.5 -68t-164.5 68t-68 164.5t68 164.5t164.5 68z" />
    <glyph glyph-name="star" unicode="&#xa003;" 
d="M957.5 492.5q-6.5 19.5 -27.5 20.5l-282 22l-108 277q-7 19 -28 19t-29 -19l-108 -277l-282 -22q-20 -1 -26.5 -20.5t8.5 -32.5l217 -194l-68 -291q-4 -20 13 -32t34 -1l241 157l240 -157q8 -5 17 -5q10 0 18 6q17 12 12 32l-68 291l217 194q16 13 9.5 32.5z" />
    <glyph glyph-name="chanliang" unicode="&#xa025;" horiz-adv-x="1068" 
d="M859 674l-292 -258q-76 55 -108 79.5t-115 92.5l-343 -274v-121l343 258l223 -172l395 327l99 -108q1 58 4 144q2 34 2.5 49t-0.5 37.5t-1 30.5t-6.5 21.5t-9.5 16.5t-16.5 9.5t-21 6.5t-30.5 1.5t-37.5 1t-48.5 -1.5q-84 -3 -140 -3l103 -137v0v0zM790 376v-423h172v560
zM260 304v-351h8h162v351l-86 62zM533 -47h171v356l-169 -136zM0 103v-150h172v280z" />
    <glyph glyph-name="biaodankuai" unicode="&#xa008;" 
d="M832 768h-96v64h-86q-21 29 -57.5 46.5t-80.5 17.5t-80.5 -17.5t-57.5 -46.5h-86v-64h-96q-53 0 -90.5 -37.5t-37.5 -90.5v-640q0 -53 37.5 -90.5t90.5 -37.5h640q53 0 90.5 37.5t37.5 90.5v640q0 53 -37.5 90.5t-90.5 37.5zM352 768h70q0 26 26.5 45t63.5 19t63.5 -19
t26.5 -45h70v-128h-320v128zM736 64h-448q-13 0 -22.5 9.5t-9.5 22.5t9.5 22.5t22.5 9.5h448q13 0 22.5 -9.5t9.5 -22.5t-9.5 -22.5t-22.5 -9.5zM736 224h-448q-13 0 -22.5 9.5t-9.5 22.5t9.5 22.5t22.5 9.5h448q13 0 22.5 -9.5t9.5 -22.5t-9.5 -22.5t-22.5 -9.5zM736 384
h-448q-13 0 -22.5 9.5t-9.5 22.5t9.5 22.5t22.5 9.5h448q13 0 22.5 -9.5t9.5 -22.5t-9.5 -22.5t-22.5 -9.5z" />
    <glyph glyph-name="suo" unicode="&#xa050;" 
d="M782 491h-5q-8 0 -9.5 1.5t-1.5 10.5v4v64q-2 104 -75 175q-61 59 -141.5 70.5t-153.5 -29.5q-127 -70 -132 -219q-1 -10 -1 -28.5v-28.5q0 -18 -1 -19t-18 -1q-26 -1 -42.5 -17.5t-16.5 -43.5q-1 -386 -1 -419q0 -27 18.5 -44.5t42.5 -17.5h266h268t44.5 17t16.5 45v415
q0 12 -1 17q-4 21 -20 34t-37 14zM313 562q0 65 35.5 117.5t93.5 75.5q46 19 92.5 13t85 -28.5t65 -62.5t32.5 -89q3 -4 2.5 -45t-0.5 -46q0 -6 -10 -6h-122h-71h-190q-10 0 -11.5 1.5t-1.5 10.5v59zM787 23q0 -8 -5.5 -13.5t-12.5 -5.5h-514q-7 0 -12.5 5.5t-5.5 13.5v391
q0 8 5.5 13.5t12.5 5.5h514q7 0 12.5 -5.5t5.5 -13.5v-391zM524 371q-26 2 -47 -11t-30 -36t-2.5 -48t25.5 -39q13 -9 13 -25v-56v-29.5t2 -30.5q1 -11 9.5 -18t19.5 -7q23 -1 30 24q1 5 1 13v99t14 29q37 27 29 75q-5 24 -23 41t-41 19z" />
    <glyph glyph-name="weixin" unicode="&#xa054;" 
d="M444 683q110 0 193 -60t100 -150q-6 1 -13 1q-111 0 -190.5 -66.5t-79.5 -160.5q0 -30 10 -59h-20q-48 0 -94 12l-5 2l-107 -55l29 90q-2 1 -3 2q-54 34 -85 85.5t-31 110.5q0 103 86.5 175.5t209.5 72.5zM547 480q17 0 29.5 12t12.5 28.5t-12.5 28.5t-29.5 12t-29.5 -12
t-12.5 -28.5t12.5 -28.5t29.5 -12zM341 480q17 0 29.5 12t12.5 28.5t-12.5 28.5t-29.5 12t-29.5 -12t-12.5 -28.5t12.5 -28.5t29.5 -12zM444 747q-98 0 -181 -41.5t-131 -113.5t-48 -157q0 -62 28 -120.5t80 -101.5l-15 -46q-6 -19 -0.5 -37.5t20.5 -31.5q18 -15 41 -15
q16 0 29 7l86 44q44 -10 91 -10h23q32 2 49.5 28t8.5 56q-7 20 -7 39q0 67 60.5 115t145.5 48q5 0 10 -1h3q29 0 48 22q20 23 15 54q-21 114 -121.5 188t-234.5 74v0zM700 403q73 0 124.5 -43t51.5 -104q0 -35 -18.5 -65.5t-50.5 -51.5l-1 -1l17 -53l-64 32q-2 0 -3 -1
q-27 -7 -56 -7q-73 0 -124.5 43t-51.5 104t51.5 104t124.5 43zM761.5 283q10.5 0 17.5 7t7 17t-7 17t-17.5 7t-17.5 -7t-7 -17t7 -17t17.5 -7zM639 283q10 0 17.5 7t7.5 17t-7.5 17t-17.5 7t-17.5 -7t-7.5 -17t7.5 -17t17.5 -7zM700 467q-99 0 -169.5 -62t-70.5 -149
t70.5 -149t169.5 -62q26 0 51 5l42 -22q14 -7 29 -7q24 0 42 15q15 13 20 31.5t-1 36.5l-3 12q60 60 60 140q0 87 -70 149t-170 62v0z" />
    <glyph glyph-name="xinxi" unicode="&#xa011;" horiz-adv-x="3161" 
d="M2029 827h-896q-44 0 -75.5 -31.5t-31.5 -75.5v-674q0 -44 31.5 -75t75.5 -31h896q44 0 75.5 31t31.5 75v674q-1 44 -32 75.5t-75 31.5v0zM2013 753l-421 -445l-440 445h861zM2015 14h-868q-19 0 -33 13.5t-14 32.5v640l493 -499l469 496v-637q0 -19 -14 -32.5t-33 -13.5
v0zM2015 14z" />
    <glyph glyph-name="userpro" unicode="&#xa049;" 
d="M934 -32q-4 75 -54 126q-34 34 -100 63q-13 6 -39 16q-39 16 -55 24q-33 16 -41 34q-2 25 -2 66q5 4 7 7q8 12 17 29q12 26 18 59h1q11 4 17 11q17 23 22 62q4 29 -13 52q23 75 18 138q-5 54 -30 89q-27 37 -79 49q-33 40 -111 40h-1q-71 -2 -121 -29.5t-72 -78.5
q-34 -76 -3 -206q-18 -24 -14 -54q5 -39 22 -62q6 -7 18 -11v0q7 -34 19 -59q8 -16 18 -29q2 -3 6 -7q1 -40 -1 -66q-9 -18 -42 -34q-16 -8 -55 -24q-26 -10 -39 -16q-67 -29 -101 -63q-50 -50 -54 -126l-2 -33h848l-2 33v0zM147 -13q9 45 34 70q28 29 84 53q10 4 44.5 17.5
t52.5 22.5q55 27 69 66l1 2v3q2 21 2 89v12l-11 6v0q-4 4 -6 7q-7 9 -13 21q-14 29 -17 57l-2 16l-18 2q-2 0 -5 4q-8 10 -11 35q-1 5 -0.5 9t1.5 6.5t2.5 4.5t1.5 2.5v0.5l14 8l-4 15q-32 122 -2 188q32 75 146 77h1q29 0 49 -7.5t27 -18.5l5 -8l9 -1q38 -6 57 -32
q17 -23 20 -63q5 -61 -19 -134l-6 -16l15 -8l0.5 -0.5t1.5 -2.5t2 -4.5t1.5 -6.5t-0.5 -9q-3 -25 -11 -35q-3 -4 -5 -4l-18 -2l-2 -16q-3 -27 -17 -57q-6 -13 -12 -21q-2 -3 -6 -6v-1l-11 -6v-12q0 -68 2 -89v-3l1 -2q15 -39 69 -66q17 -9 51.5 -22.5t44.5 -17.5
q56 -24 84 -53q25 -25 34 -70h-730v0z" />
    <glyph glyph-name="gaojing" unicode="&#xa042;" 
d="M669 -2h-341q-8 0 4 -19.5t37 -43.5q25 -23 59 -43q35 -20 73 -20q1 0 2 0.5t1.5 0.5t1.5 -0.5l1 -0.5q39 0 73 20q35 20 59 43q25 24 37 43q13 20 5 20h-12zM1000 110v0q-24 33 -55 81q-30 46 -57 104t-46 121q-20 64 -20 129q0 64 -17 117t-46 93q-29 41 -68 69
q-39 27 -83 42q-47 13 -101 13q-1 0 -1.5 0.5t-1.5 0.5v0l-1 -0.5l-1 -0.5q-54 0 -101 -13q-44 -15 -83 -42q-40 -28 -68 -69q-29 -40 -46.5 -92.5t-17.5 -117.5t-19 -129q-19 -63 -46 -121q-28 -57 -57 -104q-31 -48 -55 -81v0q-9 -12 -8.5 -23t6 -19t12.5 -13h1
q2 -1 10 -3l2 -0.5t3 -0.5h939q1 0 2.5 0.5t2.5 0.5q8 2 10 3v0q8 5 13 13t6 19t-8 23z" />
    <glyph glyph-name="iconzhenghe06" unicode="&#xa035;" 
d="M949 341l-373 357q-15 15 -36.5 15t-37.5 -15l-373 -359q-16 -15 -16 -37t16 -37l45 -43q15 -15 37 -15q14 0 26 7v-137q0 -37 26 -63t63 -26h427q36 0 62 26t26 62v140q13 -7 26 -7q22 0 37 15l45 43q16 15 16 37t-16 37zM867 263l-65 62q-4 4 -9 2t-5 -8v-242
q0 -15 -10.5 -25.5t-25.5 -10.5h-426q-15 0 -25.5 10.5t-10.5 24.5v241q0 6 -5 8t-9 -2l-65 -62v0l-43 41l371 357v0l372 -355l-44 -41v0zM437.5 337q-17.5 0 -29.5 -12t-12 -30v-77q0 -18 12 -30t29.5 -12t30 12t12.5 30v77q0 18 -12.5 30t-30 12zM640.5 337
q-17.5 0 -29.5 -12t-12 -30v-77q0 -18 12 -30t29.5 -12t29.5 12t12 30v77q0 18 -12 30t-29.5 12z" />
    <glyph glyph-name="supervisoraccount" unicode="&#xa002;" 
d="M384 342q44 0 102 -12q-102 -56 -102 -148v-96h-298v106q0 46 55 82t121 52t122 16zM704 298q74 0 154 -32t80 -84v-96h-468v96q0 52 80 84t154 32v0zM384 426q-52 0 -90 38t-38 90t38 90t90 38t90 -38t38 -90t-38 -90t-90 -38zM704 384q-44 0 -75 31t-31 75t31 76t75 32
t75 -32t31 -76t-31 -75t-75 -31z" />
    <glyph glyph-name="zhilizhong" unicode="&#xa057;" 
d="M718 251l-165 155v284q0 21 -15 36t-36 15t-35.5 -15t-14.5 -36v-304q-1 -23 15 -39l181 -171q15 -13 35 -13q22 0 37 16q14 15 13.5 36t-15.5 36zM712 25q-92 -51 -198 -51q-112 0 -206.5 55t-149.5 149.5t-55 205.5t55 205.5t149.5 149.5t206.5 55q141 0 252 -87
l-58 -49l238 -72l-41 240l-60 -52q-56 48 -123 78q-99 44 -208 44q-105 0 -200 -40q-92 -39 -162.5 -110t-109.5 -163q-40 -95 -40 -199t40 -199q39 -92 110 -163t162 -110q95 -40 200 -40q132 0 247 64q18 10 24 30t-4 38.5t-30.5 24.5t-38.5 -4zM871 42q-18 0 -32 12
q-16 13 -18 34t11 37q29 37 50 78q9 19 29 26t39 -2.5t25.5 -29.5t-2.5 -39q-25 -52 -62 -97q-15 -19 -40 -19zM972 308q-21 0 -36 14.5t-15 35.5q0 54 -14 105q-5 21 5.5 39t31 23.5t38.5 -5t24 -31.5q16 -64 16 -131q0 -21 -14.5 -35.5t-35.5 -14.5z" />
    <glyph glyph-name="wodeshebei" unicode="&#xa039;" 
d="M66 13q0 -31 22 -53t53 -22h746q31 0 52.5 22t21.5 53v205q0 31 -21.5 53t-52.5 22h-224v196q0 19 -13.5 32.5t-33 13.5t-33 -13.5t-13.5 -32.5v-196h-429q-31 0 -53 -22t-22 -53v-205zM159 115q0 20 14 33.5t33 13.5t33 -13.5t14 -33t-14 -33t-33 -13.5t-33 13.5
t-14 32.5v0zM327 115q0 20 14 33.5t33 13.5t33 -13.5t14 -33t-14 -33t-33 -13.5t-33 13.5t-14 32.5v0v0zM616 684q-81 0 -138 -57t-57 -138q0 -20 13.5 -33.5t32.5 -13.5t33 13.5t14 33.5q0 42 30 72t72.5 30t72.5 -30t30 -72q0 -20 13.5 -33.5t33 -13.5t33 13.5t13.5 33.5
q0 81 -57 138t-139 57v0v0zM616 834q-93 0 -172.5 -46.5t-126 -126t-46.5 -172.5q0 -20 14 -33.5t33 -13.5t33 13.5t14 33.5q0 104 73.5 177.5t178 73.5t178 -73.5t73.5 -177.5q0 -20 13.5 -33.5t33 -13.5t33 13.5t13.5 33.5q0 93 -46 172.5t-125.5 126t-173.5 46.5v0v0z
M616 834z" />
    <glyph glyph-name="111jingxiang" unicode="&#xa031;" 
d="M85 794l342 -120v-580l-342 -120v820zM119 725l274 -85v-512l-274 -85v682zM137 691h17v-614h-17v614zM870 691h17v-614h-17v614zM939 794l-342 -120v-580l342 -120v820zM905 725l-274 -85v-512l274 -85v682zM495 759h34v-85h-34v85zM495 486h34v-85h-34v85zM495 623h34
v-85h-34v85zM495 350h34v-85h-34v85zM495 213h34v-85h-34v85zM495 77h34v-60h-34v60z" />
    <glyph glyph-name="cipanio" unicode="&#xa043;" horiz-adv-x="1099" 
d="M451 210h82q17 0 17 15v37q0 14 -18 14h-82q-7 0 -11.5 -5t-4.5 -11v-34q0 -6 5.5 -11t11.5 -5zM612 210h117q17 0 17 14v37q0 14 -17 14h-117q-17 0 -17 -14v-32q0 -19 17 -19zM365 750l-185 -339v-285q0 -43 45 -43h627q19 0 30 11t11 30v290l-186 336h-342zM672 694
l155 -278h-577l153 278h269zM833 140h-595v214h595v-214z" />
    <glyph glyph-name="cpu" unicode="&#xa021;" horiz-adv-x="1099" 
d="M906 498v61h-72v94q0 37 -36 37h-87v74h-61v-74h-93v74h-61v-74h-93v74h-61v-74h-81q-22 0 -32 -10.5t-10 -33.5l-1 -87h-73v-61h73v-85h-73v-61l73 -1v-86h-73v-60h73v-83q0 -25 11.5 -36.5t36.5 -11.5h76v-70h61v70h93v-70h61v70h93l-1 -70h62v70h83q19 0 29.5 14.5
t10.5 33.5v83h72v60h-72v86h72v62h-72v85h72zM773 136h-493v493h493v-493v0zM383 214h296q16 0 16 18v297q0 9 -5.5 14.5t-13.5 5.5h-296q-12 0 -16 -5t-4 -17v-290q0 -23 23 -23z" />
    <glyph glyph-name="chucun" unicode="&#xa029;" 
d="M958 291v-185q0 -38 -27.5 -65.5t-65.5 -27.5h-705q-38 0 -65.5 27.5t-27.5 65.5v185q0 15 9 44l115 351q9 31 36 50t59 19h453q32 0 59 -19t36 -50l115 -351q9 -29 9 -44zM170 384h685l-91 280q-3 7 -10 12t-15 5h-453q-8 0 -15 -5t-10 -12zM884 106v185q0 8 -5.5 13.5
t-13.5 5.5h-705q-8 0 -13.5 -5.5t-5.5 -13.5v-185q0 -8 5.5 -13.5t13.5 -5.5h705q8 0 13.5 5.5t5.5 13.5zM819 198.5q0 -19.5 -14 -33t-33 -13.5t-32.5 13.5t-13.5 33t13.5 33t32.5 13.5t33 -13.5t14 -33zM670 198.5q0 -19.5 -13.5 -33t-32.5 -13.5t-33 13.5t-14 33t14 33
t33 13.5t32.5 -13.5t13.5 -33z" />
    <glyph glyph-name="fuwujiedian" unicode="&#xa036;" 
d="M856 834h-696q-20 0 -35 -15t-15 -35v-798q0 -20 15 -34.5t35 -14.5h696q21 0 35.5 14.5t14.5 34.5v798q0 20 -14.5 35t-35.5 15zM856 -14h-696v798h696v-798zM806 734h-596v-150h596v150zM756 634h-498v50h498v-50zM806 535h-596v-150h596v150zM756 435h-498v50h498v-50
zM507 335q-62 0 -105.5 -43.5t-43.5 -105.5t43.5 -106t105.5 -44t106 44t44 106t-44 105.5t-106 43.5zM507 86q-41 0 -70.5 29.5t-29.5 70.5t29.5 70t70.5 29t70.5 -29t29.5 -70t-29.5 -70.5t-70.5 -29.5z" />
    <glyph glyph-name="lianjie" unicode="&#xa006;" 
d="M719 268q-52 0 -85 -33l-216 124q0 4 3.5 13.5t3.5 12.5q0 20 -7 27l222 124q33 -33 85 -33q49 0 83.5 34.5t34.5 83.5t-34.5 83t-83.5 34q-50 0 -87 -31.5t-37 -79.5q0 -19 7 -26l-223 -131q-43 33 -85 33q-49 0 -83 -34.5t-34 -83.5t34 -83t83 -34q53 0 85 32l223 -124
q0 -3 -3.5 -13t-3.5 -13q0 -49 34.5 -83.5t83.5 -34.5t83.5 34.5t34.5 83.5t-34.5 83.5t-83.5 34.5v0z" />
    <glyph glyph-name="yanzhengmayanzheng" unicode="&#xa048;" 
d="M512 -128q-46 0 -105.5 25t-118 70t-108.5 100t-81 122t-31 130v414q0 7 5.5 12.5t13.5 5.5l25 1q10 0 31 1.5t73 12t97 28.5q105 40 173 88l14 10q6 4 12 4t11 -4l15 -10q68 -48 172 -88q46 -18 98 -28.5t73 -12t31 -1.5l25 -1q7 0 13 -5.5t6 -12.5v-414q0 -63 -31 -130
t-81 -122t-108.5 -100t-118 -70t-105.5 -25zM887 685q-106 8 -201 45q-96 38 -174 88q-78 -50 -174 -88q-94 -37 -201 -45v-366q0 -61 41 -131t99.5 -123t123.5 -89t111 -36q40 0 104.5 32t129.5 92q66 61 103.5 128.5t37.5 126.5v366zM476 249q-10 -10 -24 -10t-24 10
l-102 102q-10 10 -10 24.5t10 24.5t24 10t24 -10l78 -79l198 198q10 10 24 10t24 -10t10 -24t-10 -24z" />
    <glyph glyph-name="shiyongshichang2" unicode="&#xa058;" 
d="M512 896q-139 0 -257 -68.5t-186.5 -186.5t-68.5 -257t68.5 -257t186.5 -186.5t257 -68.5t257 68.5t186.5 186.5t68.5 257t-68.5 257t-186.5 186.5t-257 68.5v0zM512 -32q-113 0 -209 55.5t-151.5 151.5t-55.5 209t55.5 209t151.5 151.5t209 55.5t209 -55.5t151.5 -151.5
t55.5 -209t-55.5 -209t-151.5 -151.5t-209 -55.5v0zM720 432h-160v240q0 20 -14 34t-34 14t-34 -14t-14 -34v-288q0 -20 14 -34t34 -14v0h208q20 0 34 14t14 34t-14 34t-34 14v0z" />
    <glyph glyph-name="rongliang" unicode="&#xa034;" 
d="M951 121l-109 623q-4 29 -26 48.5t-52 20.5h-504q-31 -1 -53 -21t-26 -50l-108 -621q-6 -21 -6 -39q0 -53 37 -90.5t90 -37.5h636q53 0 90 37.5t37 90.5q0 18 -6 39zM247 750h530l95 -549q-22 8 -42 8h-636q-20 0 -42 -8zM830 18h-636q-26 0 -45 18.5t-19 45t19 45
t45 18.5h636q26 0 45 -18.5t19 -45t-19 -45t-45 -18.5zM417 368h190q26 1 44.5 19.5t18.5 44.5t-18.5 44.5t-44.5 18.5q0 40 -27.5 68t-67.5 28t-67.5 -28t-27.5 -68q-26 0 -44.5 -18.5t-18.5 -44.5t18.5 -44.5t43.5 -19.5h1zM798 114q-13 0 -22 -9.5t-9 -22.5t9 -22.5
t22 -9.5v0q14 0 23 9.5t9 22.5v0v0q0 13 -9 22.5t-23 9.5v0z" />
    <glyph glyph-name="kongjian" unicode="&#xa030;" 
d="M517 390q-8 0 -14 3l-417 191q-18 8 -18 27t18 27l417 191q14 6 27 0l412 -191q18 -8 18 -27t-18 -27l-412 -191q-6 -3 -13 -3v0zM517 -64q-8 0 -14 3l-412 191q-12 5 -16 17t1.5 23t18 15t23.5 -1l399 -185l398 185q12 5 24 1t18 -15t1.5 -23t-16.5 -17l-412 -191
q-6 -3 -13 -3v0v0zM928 136q-13 0 -22 8.5t-9 21.5v440q0 12 9 21t22 9t22.5 -9t9.5 -21v-440q0 -13 -9.5 -21.5t-22.5 -8.5zM517 -27q-13 0 -22.5 8.5t-9.5 21.5v440q0 12 9.5 21t22.5 9t22 -9t9 -21v-440q0 -13 -9 -21.5t-22 -8.5zM95 132q-13 0 -22 9t-9 21v444
q0 12 9 21t22 9t22.5 -9t9.5 -21v-444q0 -12 -9.5 -21t-22.5 -9z" />
    <glyph glyph-name="io" unicode="&#xa044;" 
d="M302 595h-53v-415h53v-103h-238v103h53v415h-53v103h238v-103zM354 379q0 146 85 237.5t225 91.5q133 0 214.5 -88.5t81.5 -227.5q0 -145 -84.5 -235.5t-221.5 -90.5q-133 0 -216.5 87.5t-83.5 225.5zM493 386q0 -90 43.5 -147.5t119.5 -57.5q78 0 121.5 55t43.5 148
q0 97 -42 153.5t-119 56.5q-78 0 -122.5 -58t-44.5 -150z" />
    <glyph glyph-name="yidong" unicode="&#xa047;" 
d="M696.5 743q-23.5 24 -56.5 24h-256q-33 0 -56.5 -24t-23.5 -58v-549q0 -33 23.5 -57t56.5 -24h256q33 0 56.5 24t23.5 57v549q0 34 -23.5 58zM545 95q-14 -14 -33.5 -14t-34 14t-14.5 34t14.5 34.5t34 14.5t33.5 -14.5t14 -34.5t-14 -34zM675 203h-326v512h326v-512z
M378 433h268v-200h-268v200zM378 522h268v-67h-268v67zM378 686h268v-142h-268v142z" />
    <glyph glyph-name="pc" unicode="&#xa046;" 
d="M164 670h695v-196h-695v196zM164 443h227v-226h-227v226zM421 443h438v-226h-438v226zM904 171v537h-786v-537h786zM875 761q32 0 56.5 -23.5t24.5 -57.5l-1 -484q0 -32 -24 -55.5t-56 -23.5h-203v-82h-323v82h-203q-34 0 -57.5 23.5t-23.5 55.5v484q0 34 23.5 57.5
t57.5 23.5h729z" />
    <glyph glyph-name="jiedianlianjie" unicode="&#xa032;" 
d="M667 58h173v-25h-173v25zM939 351h-182v206q29 0 48.5 20.5t19.5 47.5t-19.5 47t-48.5 20q-25 0 -43.5 -16.5t-22.5 -40.5h-216v57q-3 21 -23 21h-368q-9 0 -15 -6.5t-6 -14.5v-227q0 -10 5.5 -15.5t15.5 -5.5h370q10 0 15.5 5.5t5.5 15.5v145h217q8 -33 40 -47v-212
h-164q-8 0 -14.5 -6.5t-6.5 -14.5v-137h-220q-10 30 -39 41v161h67v26h-172v-26h80v-156q-28 0 -48 -20t-20 -47t20.5 -47t47.5 -20q25 0 45 18.5t22 44.5h217v-65q0 -9 6.5 -15t14.5 -6h371q8 0 14.5 6t6.5 15v227q0 9 -6.5 15t-14.5 6zM433 509q0 -11 -7 -18t-18 -7h-280
q-11 0 -18 7t-7 18v139q0 11 7 18t18 7h280q11 0 18 -7t7 -18v-139zM263 132q-16 0 -28 11.5t-12 28.5t11 28.5t28.5 11.5t29 -11.5t11.5 -28.5t-12 -28.5t-28 -11.5zM717 625q0 17 11.5 28.5t29 11.5t28.5 -11.5t11 -29t-11 -28.5t-29 -11q-16 0 -28 11.5t-12 28.5z
M917 147q0 -11 -6 -18t-17 -7h-282q-11 0 -18 7t-7 18v139q0 11 7 18t18 7h280q11 0 18 -7t7 -18v-139z" />
    <glyph glyph-name="jiedianweilianjie-" unicode="&#xa045;" 
d="M203 374zM939 369h-371q-8 0 -14.5 -6.5t-6.5 -14.5v-227q0 -9 6.5 -15t14.5 -6h371q8 0 14.5 6t6.5 15v227q0 9 -6.5 15t-14.5 6zM920 165q0 -11 -7 -18t-18 -7h-283q-11 0 -18 7t-7 18v139q0 11 7 18t18 7h280q12 0 19 -7t7 -18v-139h2zM667 76h173v-25h-173v25z
M452 732h-369q-9 0 -15 -6.5t-6 -14.5v-228q0 -9 6 -15t15 -6h371q9 0 15 6t6 15v228q-3 21 -23 21zM433 527q0 -11 -7 -18t-18 -7h-281q-11 0 -18 7t-7 18v140q0 11 7 18t18 7h281q11 0 18 -7t7 -18v-140zM182 439h173v-25h-173v25zM757.5 711q-28.5 0 -48 -20t-19.5 -48
q0 -26 20.5 -46.5t47.5 -20.5q28 0 47.5 20t19.5 47.5t-19.5 47.5t-48 20zM758 603q-17 0 -29 11.5t-12 28.5q0 18 11.5 29t29 11t29 -11t11.5 -28.5t-11.5 -29t-28.5 -11.5zM317 211h230v-25h-230v25zM473 654h230v-25h-230v25zM262 258q-28 0 -47.5 -20.5t-19.5 -47.5
t20 -47t47 -20t47.5 20t20.5 47t-20 47.5t-48 20.5zM262 150q-16 0 -28 11.5t-12 28.5q0 18 11.5 29t29 11t28.5 -11t11 -29q0 -17 -12 -28.5t-28 -11.5z" />
    <glyph glyph-name="hetonglei" unicode="&#xe666;" 
d="M196 794h632q39 0 66.5 -27.5t27.5 -66.5v-632q0 -39 -27.5 -66.5t-66.5 -27.5h-632q-39 0 -66.5 27.5t-27.5 66.5v632q0 39 27.5 66.5t66.5 27.5zM301 197h422v-47h-422v47zM691 322h-102q-14 16 -16 37q-2 24 12 47.5t29 50t15 55.5q0 45 -32 75.5t-85 30.5t-85 -30.5
t-32 -75.5q0 -29 15 -55.5t29 -50.5t12 -48q-1 -16 -16 -37h-102q-13 0 -22.5 -9.5t-9.5 -22.5v-62h422v63q0 14 -9.5 23t-22.5 9z" />
    <glyph glyph-name="hetongleioutline" unicode="&#xe667;" 
d="M828 744q18 0 31 -13t13 -31v-632q0 -18 -13 -31t-31 -13h-632q-18 0 -31 13t-13 31v632q0 18 13 31t31 13h632zM828 794h-632q-39 0 -66.5 -27.5t-27.5 -66.5v-632q0 -39 27.5 -66.5t66.5 -27.5h632q39 0 66.5 27.5t27.5 66.5v632q0 39 -27.5 66.5t-66.5 27.5zM301 197
h422v-47h-422v47zM691 322h-102q-14 16 -16 37q-2 24 12 47.5t29 50t15 55.5q0 45 -32 75.5t-85 30.5t-85 -30.5t-32 -75.5q0 -29 15 -55.5t29 -50.5t12 -48q-1 -16 -16 -37h-102q-13 0 -22.5 -9.5t-9.5 -22.5v-62h422v63q0 14 -9.5 23t-22.5 9z" />
    <glyph glyph-name="yongtulei" unicode="&#xe668;" 
d="M828 794h-632q-39 0 -66.5 -27.5t-27.5 -66.5v-632q0 -39 27.5 -66.5t66.5 -27.5h632q39 0 66.5 27.5t27.5 66.5v632q0 39 -27.5 66.5t-66.5 27.5zM757 624q-8 -39 -12 -63q-2 -12 -8 -35.5t-8 -35.5q-4 -12 -8.5 -28.5t-7.5 -24.5l-91 -46q6 2 16 3t16 3q5 3 14 5t14 3
q11 6 23 6l-8 -28q-1 -3 -2.5 -6.5t-2.5 -5.5t-3 -4q-12 -24 -16 -27.5t-9.5 -11.5t-9.5 -12l-13 -16l-86 -24l63 -8q-4 -2 -13.5 -9t-14.5 -11q-4 -2 -13.5 -7.5t-13.5 -7.5q-6 -2 -18 -8t-18 -8q-24 -8 -40 -8q-27 0 -43 4q-16 0 -48 8q2 1 7 8t9 12q2 2 8 9.5t8 13.5
q4 4 10 14t10 14l59 83q46 65 52 71q8 12 25.5 36t25.5 36l-63 -64q-16 -16 -64 -71q-9 -14 -32 -43.5t-31 -39.5q-2 -4 -8 -12t-8 -12q-4 -4 -9.5 -14t-9.5 -14q-14 -13 -20 -31q-9 -6 -24 -25.5t-37 -50t-27 -37.5q3 5 8.5 20.5t5.5 24.5q3 10 17 33q19 34 24 46q4 6 9 16
t7 12q1 3 3 5t2.5 3t0.5 3l5 9q-5 13 -2 20q0 2 1.5 5t3 8.5t3.5 10.5q2 6 9 19.5t11 23.5q3 9 8.5 18t16.5 25t14 21q24 33 56 71q8 10 19 21t24 23.5t20 18.5q24 24 71 56q31 20 75 39q56 16 72 16q0 -28 -4 -48z" />
    <glyph glyph-name="yongtuleioutline" unicode="&#xe669;" 
d="M828 744q18 0 31 -13t13 -31v-632q0 -18 -13 -31t-31 -13h-632q-18 0 -31 13t-13 31v632q0 18 13 31t31 13h632zM828 794h-632q-39 0 -66.5 -27.5t-27.5 -66.5v-632q0 -39 27.5 -66.5t66.5 -27.5h632q39 0 66.5 27.5t27.5 66.5v632q0 39 -27.5 66.5t-66.5 27.5zM622 391
q6 2 16 3t16 3q5 3 14 5t14 3q11 6 23 6l-8 -28q-1 -3 -2.5 -6.5t-2.5 -5.5t-3 -4q-12 -24 -16 -27.5t-9.5 -11.5t-9.5 -12l-13 -16l-86 -24l63 -8q-4 -2 -13.5 -9t-14.5 -11q-4 -2 -13.5 -7.5t-13.5 -7.5q-6 -2 -18 -8t-18 -8q-24 -8 -40 -8q-27 0 -43 4q-16 0 -48 8
q2 1 7 8t9 12q2 2 8 9.5t8 13.5q4 4 10 14t10 14l59 83q46 65 52 71q8 12 25.5 36t25.5 36l-63 -64q-16 -16 -64 -71q-9 -14 -32 -43.5t-31 -39.5q-2 -4 -8 -12t-8 -12q-4 -4 -9.5 -14t-9.5 -14q-14 -13 -20 -31q-9 -6 -24 -25.5t-37 -50t-28 -37.5q4 5 9.5 20.5t5.5 24.5
q3 10 17 33q19 34 24 46q4 6 9 16t7 12q1 3 3 5t2.5 3t0.5 3l5 9q-5 13 -2 20q0 2 1.5 5t3 8.5t3.5 10.5q2 6 9 19.5t11 23.5q3 9 8.5 18t16.5 25t14 21q24 33 56 71q8 10 19 21t24 23.5t20 18.5q24 24 71 56q31 20 75 39q56 16 72 16q0 -28 -4 -48q-8 -39 -12 -63
q-2 -12 -8 -35.5t-8 -35.5q-4 -12 -8.5 -28.5t-7.5 -24.5l-91 -46v0z" />
  </font>
</defs>
</svg>
