<?xml version="1.0" standalone="no"?>
<!DOCTYPE svg PUBLIC "-//W3C//DTD SVG 1.1//EN" "http://www.w3.org/Graphics/SVG/1.1/DTD/svg11.dtd" >
<svg xmlns="http://www.w3.org/2000/svg">
<metadata>
Created by FontForge 20120731 at Thu May 19 19:59:00 2016
 By admin
</metadata>
<defs>
<font id="iconfont" horiz-adv-x="1024" >
  <font-face 
    font-family="iconfont"
    font-weight="500"
    font-stretch="normal"
    units-per-em="1024"
    panose-1="2 0 6 3 0 0 0 0 0 0"
    ascent="896"
    descent="-128"
    x-height="792"
    bbox="0 -212 1281.57 896"
    underline-thickness="50"
    underline-position="-100"
    unicode-range="U+0078-E97F"
  />
<missing-glyph horiz-adv-x="374" 
d="M34 0v682h272v-682h-272zM68 34h204v614h-204v-614z" />
    <glyph glyph-name=".notdef" horiz-adv-x="374" 
d="M34 0v682h272v-682h-272zM68 34h204v614h-204v-614z" />
    <glyph glyph-name=".null" horiz-adv-x="0" 
 />
    <glyph glyph-name="nonmarkingreturn" horiz-adv-x="341" 
 />
    <glyph glyph-name="x" unicode="x" horiz-adv-x="1001" 
d="M281 543q-27 -1 -53 -1h-83q-18 0 -36.5 -6t-32.5 -18.5t-23 -32t-9 -45.5v-76h912v41q0 16 -0.5 30t-0.5 18q0 13 -5 29t-17 29.5t-31.5 22.5t-49.5 9h-133v-97h-438v97zM955 310v-52q0 -23 0.5 -52t0.5 -58t-10.5 -47.5t-26 -30t-33 -16t-31.5 -4.5q-14 -1 -29.5 -0.5
t-29.5 0.5h-32l-45 128h-439l-44 -128h-29h-34q-20 0 -45 1q-25 0 -41 9.5t-25.5 23t-13.5 29.5t-4 30v167h911zM163 247q-12 0 -21 -8.5t-9 -21.5t9 -21.5t21 -8.5q13 0 22 8.5t9 21.5t-9 21.5t-22 8.5zM316 123q-8 -26 -14 -48q-5 -19 -10.5 -37t-7.5 -25t-3 -15t1 -14.5
t9.5 -10.5t21.5 -4h37h67h81h80h64h36q23 0 34 12t2 38q-5 13 -9.5 30.5t-9.5 34.5q-5 19 -11 39h-368zM336 498v228q0 11 2.5 23t10 21.5t20.5 15.5t34 6h188q31 0 51.5 -14.5t20.5 -52.5v-227h-327z" />
    <glyph glyph-name="uniE600" unicode="&#xe600;" 
d="M490 854l406 -214v-86h-810v86zM682 470h128v-300h-128v300zM86 -42v128h810v-128h-810zM426 470h128v-300h-128v300zM170 470h128v-300h-128v300z" />
    <glyph glyph-name="uniE601" unicode="&#xe601;" 
d="M682 320q26 0 45 18t19 46t-19 46t-45 18t-45 -18t-19 -46t19 -46t45 -18zM512 214v340h426v-340h-426zM896 128v-42q0 -34 -26 -60t-60 -26h-596q-36 0 -61 26t-25 60v596q0 34 25 60t61 26h596q34 0 60 -26t26 -60v-42h-384q-36 0 -61 -26t-25 -60v-340q0 -34 25 -60
t61 -26h384z" />
    <glyph glyph-name="uniE602" unicode="&#xe602;" 
d="M256 170v-42h512v42q0 58 -88 95t-168 37t-168 -37t-88 -95zM640 512q0 52 -38 90t-90 38t-90 -38t-38 -90t38 -90t90 -38t90 38t38 90zM128 682q0 34 25 60t61 26h596q34 0 60 -26t26 -60v-596q0 -34 -26 -60t-60 -26h-596q-36 0 -61 26t-25 60v596z" />
    <glyph glyph-name="uniE603" unicode="&#xe603;" 
d="M512 76q162 0 256 138q-2 56 -90 94t-166 38t-166 -37t-90 -95q94 -138 256 -138zM512 682q-52 0 -90 -38t-38 -90t38 -90t90 -38t90 38t38 90t-38 90t-90 38zM512 810q176 0 301 -125t125 -301t-125 -301t-301 -125t-301 125t-125 301t125 301t301 125z" />
    <glyph glyph-name="uniE604" unicode="&#xe604;" 
d="M640 512q18 0 30 12t12 30t-12 31t-30 13t-30 -13t-12 -31t12 -30t30 -12zM384 512q18 0 30 12t12 30t-12 31t-30 13t-30 -13t-12 -31t12 -30t30 -12zM688 710q122 -90 122 -240v-44h-596v44q0 150 122 240l-90 90l36 34l98 -98q64 32 132 32t132 -32l98 98l36 -34z
M214 214v170h596v-170q0 -124 -87 -212t-211 -88t-211 88t-87 212z" />
    <glyph glyph-name="uniE605" unicode="&#xe605;" 
d="M810 342h-256v-256h-84v256h-256v84h256v256h84v-256h256v-84z" />
    <glyph glyph-name="uniE606" unicode="&#xe606;" 
d="M418 298q0 58 40 98t96 40q58 0 98 -40t40 -98q0 -56 -40 -96t-98 -40t-97 39t-39 97zM554 86q88 0 151 62t63 150t-63 151t-151 63t-150 -63t-62 -151t62 -150t150 -62zM256 470v128h128v128h298l78 -86h136q34 0 60 -26t26 -60v-512q0 -34 -26 -59t-60 -25h-682
q-34 0 -60 25t-26 59v428h128zM128 726v128h86v-128h128v-86h-128v-128h-86v128h-128v86h128z" />
    <glyph glyph-name="uniE607" unicode="&#xe607;" 
d="M554 512v-128h128v-86h-128v-128h-84v128h-128v86h128v128h84zM512 42q124 0 211 88t87 212t-87 211t-211 87t-211 -87t-87 -211t87 -212t211 -88zM512 726q160 0 272 -113t112 -271t-112 -271t-272 -113t-272 113t-112 271t112 271t272 113zM938 652l-54 -66l-196 166
l54 64zM336 752l-196 -164l-54 64l196 164z" />
    <glyph glyph-name="uniE608" unicode="&#xe608;" 
d="M682 340v86h-128v128h-84v-128h-128v-86h128v-128h84v128h128zM806 178l90 -90v-46h-768v46l90 90v248q0 102 64 183t162 103v30q0 28 20 48t48 20t48 -20t20 -48v-30q98 -22 162 -103t64 -183v-248zM428 0h168q0 -34 -25 -60t-59 -26t-59 26t-25 60z" />
    <glyph glyph-name="uniE609" unicode="&#xe609;" 
d="M726 342v84h-172v172h-84v-172h-172v-84h172v-172h84v172h172zM810 768q34 0 60 -26t26 -60v-596q0 -34 -26 -60t-60 -26h-596q-36 0 -61 26t-25 60v596q0 34 25 60t61 26h596z" />
    <glyph glyph-name="uniE60A" unicode="&#xe60a;" 
d="M726 342v84h-172v172h-84v-172h-172v-84h172v-172h84v172h172zM512 810q176 0 301 -125t125 -301t-125 -301t-301 -125t-301 125t-125 301t125 301t301 125z" />
    <glyph glyph-name="uniE60B" unicode="&#xe60b;" 
d="M512 42q140 0 241 101t101 241t-101 241t-241 101t-241 -101t-101 -241t101 -241t241 -101zM512 810q176 0 301 -125t125 -301t-125 -301t-301 -125t-301 125t-125 301t125 301t301 125zM554 598v-172h172v-84h-172v-172h-84v172h-172v84h172v172h84z" />
    <glyph glyph-name="uniE60C" unicode="&#xe60c;" 
d="M682 470v84h-128v128h-84v-128h-128v-84h128v-128h84v128h128zM512 810q124 0 211 -87t87 -211q0 -62 -31 -142t-75 -150t-87 -131t-73 -97l-32 -34q-12 14 -32 37t-72 92t-91 134t-71 147t-32 144q0 124 87 211t211 87z" />
    <glyph glyph-name="uniE60D" unicode="&#xe60d;" 
d="M512 896q200 0 347 -135t163 -333h-64q-10 118 -79 214t-175 146l-58 -56l-162 162zM706 392q0 114 -94 114h-40v-246h38q72 0 92 68q4 14 4 48v16zM612 554q106 0 144 -94q10 -24 10 -68v-16q0 -76 -42 -118q-44 -44 -114 -44h-98v340h100zM414 388q56 -22 56 -78
q0 -20 -10 -40q-12 -24 -22 -32q-30 -24 -80 -24q-48 0 -78 24t-30 70h54q0 -22 15 -36t39 -14q56 0 56 54t-62 54h-32v44h32q58 0 58 50t-52 50q-50 0 -50 -46h-56q0 34 30 64q32 26 76 26q70 0 98 -54q8 -16 8 -40q0 -46 -50 -72zM320 -20l58 56l162 -162l-28 -2
q-200 0 -347 136t-163 334h64q12 -120 80 -216t174 -146z" />
    <glyph glyph-name="uniE60E" unicode="&#xe60e;" 
d="M938 426v-84h-178l138 -138l-60 -62l-198 200h-86v-86l200 -198l-62 -60l-138 138v-178h-84v178l-138 -138l-62 60l200 198v86h-86l-198 -200l-60 62l138 138h-178v84h178l-138 138l60 62l198 -200h86v86l-200 198l62 60l138 -138v178h84v-178l138 138l62 -60l-200 -198
v-86h86l198 200l60 -62l-138 -138h178z" />
    <glyph glyph-name="uniE60F" unicode="&#xe60f;" 
d="M512 42q124 0 211 88t87 212t-87 211t-211 87t-211 -87t-87 -211t87 -212t211 -88zM512 726q160 0 272 -113t112 -271t-112 -271t-272 -113t-272 113t-112 271t112 271t272 113zM534 554v-224l170 -100l-32 -52l-202 120v256h64zM336 752l-196 -164l-54 64l196 164z
M938 652l-54 -66l-196 166l54 64z" />
    <glyph glyph-name="uniE610" unicode="&#xe610;" 
d="M512 42q124 0 211 88t87 212t-87 211t-211 87t-211 -87t-87 -211t87 -212t211 -88zM512 726q160 0 272 -112t112 -272t-112 -272t-272 -112t-272 112t-112 272t112 272t272 112zM534 554v-226l170 -102l-34 -52l-200 124v256h64zM338 750l-198 -162l-54 64l196 162z
M938 652l-54 -64l-198 168l56 64z" />
    <glyph glyph-name="uniE611" unicode="&#xe611;" 
d="M534 598v-224l192 -114l-32 -54l-224 136v256h64zM512 42q140 0 241 101t101 241t-101 241t-241 101t-241 -101t-101 -241t101 -241t241 -101zM512 810q176 0 301 -125t125 -301t-125 -301t-301 -125t-301 125t-125 301t125 301t301 125z" />
    <glyph glyph-name="uniE612" unicode="&#xe612;" 
d="M896 512h-256v-554h-86v256h-84v-256h-86v554h-256v86h768v-86zM512 810q34 0 60 -25t26 -59t-26 -60t-60 -26t-60 26t-26 60t26 59t60 25z" />
    <glyph glyph-name="uniE613" unicode="&#xe613;" 
d="M548 128h88q-16 -74 -74 -122t-136 -48q-88 0 -150 62t-62 150q0 78 48 136t122 74v-88q-38 -14 -62 -47t-24 -75q0 -52 38 -90t90 -38q42 0 75 24t47 62zM426 508q0 48 42 76t86 2h2v-2q14 -6 26 -18l56 -62q72 -78 172 -78v-84q-112 0 -212 82v-146h128q34 0 59 -26
t25 -60v-234h-84v212h-214q-34 0 -60 26t-26 60v252zM426 726q0 36 25 60t61 24t61 -24t25 -60t-25 -61t-61 -25t-61 25t-25 61z" />
    <glyph glyph-name="uniE614" unicode="&#xe614;" 
d="M342 756l-36 -30l-62 60l38 30zM702 112l-420 420q-68 -84 -68 -190q0 -124 87 -212t211 -88q104 0 190 70zM124 798q152 -152 433 -432t355 -354l-54 -54l-94 94q-110 -94 -252 -94q-160 0 -272 113t-112 271q0 140 94 250l-34 34l-48 -40l-60 62l48 38l-58 58zM938 652
l-54 -66l-196 166l54 64zM512 640q-54 0 -102 -18l-66 64q84 40 168 40q160 0 272 -113t112 -271q0 -88 -38 -168l-66 64q18 48 18 104q0 124 -87 211t-211 87z" />
    <glyph glyph-name="uniE615" unicode="&#xe615;" 
d="M450 276l210 212l46 -46l-256 -256l-136 136l44 44zM512 42q124 0 211 88t87 212t-87 211t-211 87t-211 -87t-87 -211t87 -212t211 -88zM512 726q160 0 272 -113t112 -271t-112 -271t-272 -113t-272 113t-112 271t112 271t272 113zM336 752l-196 -164l-54 64l196 164z
M938 652l-54 -66l-196 166l54 64z" />
    <glyph glyph-name="uniE616" unicode="&#xe616;" 
d="M306 266q0 -10 10 -10h494v-86h-512q-34 0 -59 26t-25 60q0 20 10 40l58 106l-154 324h-86v84h140q40 -84 80 -170q10 -18 46 -95t56 -119h300q150 272 164 300l74 -42l-164 -298q-24 -44 -74 -44h-318l-38 -70zM726 128q34 0 59 -26t25 -60t-25 -59t-59 -25t-60 25
t-26 59t26 60t60 26zM298 128q34 0 60 -26t26 -60t-26 -59t-60 -25t-59 25t-25 59t25 60t59 26zM470 512v128h-128v86h128v128h84v-128h128v-86h-128v-128h-84z" />
    <glyph glyph-name="uniE617" unicode="&#xe617;" 
d="M810 426v86h-170v170h-86v-170h-170v-86h170v-170h86v170h170zM854 810q34 0 59 -25t25 -59v-512q0 -34 -25 -60t-59 -26h-512q-34 0 -60 26t-26 60v512q0 34 26 59t60 25h512zM170 640v-598h598v-84h-598q-34 0 -59 25t-25 59v598h84z" />
    <glyph glyph-name="uniE618" unicode="&#xe618;" 
d="M682 470v-86h-128v-128h-84v128h-128v86h128v128h84v-128h128zM896 170v512h-768v-512h768zM896 768q34 0 60 -25t26 -61l-2 -512q0 -34 -25 -59t-59 -25h-214v-86h-340v86h-214q-36 0 -61 25t-25 59v512q0 36 25 61t61 25h768z" />
    <glyph glyph-name="uniE619" unicode="&#xe619;" 
d="M640 384q0 -52 -38 -90t-90 -38t-90 38t-38 90t38 90t90 38t90 -38t38 -90zM512 42q140 0 241 101t101 241t-101 241t-241 101t-241 -101t-101 -241t101 -241t241 -101zM512 810q176 0 301 -125t125 -301t-125 -301t-301 -125t-301 125t-125 301t125 301t301 125z" />
    <glyph glyph-name="uniE61A" unicode="&#xe61a;" 
d="M304 380q-38 -38 -90 -39t-90 37t-39 90t37 90t90 39t90 -37t39 -90t-37 -90zM86 298h852v-84h-256v-86h-340v86h-256v84zM938 426v-84h-554v256h384q70 0 120 -51t50 -121z" />
    <glyph glyph-name="uniE61B" unicode="&#xe61b;" 
d="M312 460q-48 -22 -99 -5t-73 65t-5 99t65 73t99 5t73 -65t5 -99t-65 -73zM64 378l30 80l810 -292l-28 -80l-194 68v-68h-340v192zM950 286l-30 -80l-528 190l90 242l364 -132q68 -24 98 -88t6 -132z" />
    <glyph glyph-name="uniE61C" unicode="&#xe61c;" 
d="M810 598q70 0 121 -51t51 -121v-256h-940v428h86v-300h342v300h340zM298 342q-52 0 -90 38t-38 90t38 90t90 38t90 -38t38 -90t-38 -90t-90 -38z" />
    <glyph glyph-name="uniE61D" unicode="&#xe61d;" 
d="M974 160q14 -24 4 -50t-34 -38l-158 -72l-146 298h-298q-52 0 -90 38t-38 90v342h256v-256h150q54 0 76 -48l144 -298l48 22q24 10 49 2t37 -30zM170 384q0 -52 38 -90t90 -38h256v-86h-256q-88 0 -150 63t-62 151v384h84v-384z" />
    <glyph glyph-name="uniE61E" unicode="&#xe61e;" 
d="M874 128q26 0 45 -18t19 -46t-19 -46t-45 -18h-192v298h-298q-52 0 -90 38t-38 90v342h256v-256h214q34 0 59 -26t25 -60v-298h64zM214 384q0 -52 38 -90t90 -38h256v-86h-256q-88 0 -151 63t-63 151v384h86v-384z" />
    <glyph glyph-name="uniE61F" unicode="&#xe61f;" 
d="M214 384q0 -52 38 -90t90 -38h170v-86h-170q-88 0 -151 63t-63 151v384h86v-384zM852 76q6 -30 -13 -53t-49 -23h-192v128l42 170h-256q-52 0 -90 38t-38 90v342h256v-256h214q34 0 59 -26t25 -60l-84 -298h60q24 0 43 -15t23 -37z" />
    <glyph glyph-name="uniE620" unicode="&#xe620;" 
d="M692 256l246 -192l-64 -64l-162 128h-292q-46 0 -81 29t-45 75l-58 252q-6 40 17 72t61 40h2q44 6 74 -18l70 -54q96 -74 200 -54v-92q-96 -16 -220 52l44 -174h208zM682 86v-86h-300q-80 0 -140 51t-72 129l-84 418h84l84 -404q8 -46 44 -77t84 -31h300zM228 656
q-28 20 -34 55t14 63t55 35t63 -13q28 -22 35 -57t-13 -63t-56 -34t-64 14z" />
    <glyph glyph-name="uniE621" unicode="&#xe621;" 
d="M854 40l-62 -62l-150 150h-216q-52 0 -90 38t-38 90v246q0 38 29 67t67 29h2q38 0 70 -32l60 -66q34 -38 91 -62t109 -24v-94q-124 0 -236 94v-158h148zM256 214q0 -52 38 -90t90 -38h256v-86h-256q-88 0 -151 63t-63 151v384h86v-384zM324 666q-26 26 -26 60t26 60
t60 26t60 -26t26 -60t-26 -60t-60 -26t-60 26z" />
    <glyph glyph-name="uniE622" unicode="&#xe622;" 
d="M896 214l-342 106v-234l86 -64v-64l-150 42l-148 -42v64l84 64v234l-340 -106v84l340 214v234q0 26 19 45t45 19t45 -19t19 -45v-234l342 -214v-84z" />
    <glyph glyph-name="uniE623" unicode="&#xe623;" 
d="M128 672l54 54l672 -672l-54 -54l-246 244v-158l86 -64v-64l-150 42l-148 -42v64l84 64v234l-340 -106v84l254 160zM554 512l342 -214v-84l-136 42l-334 334v156q0 26 19 45t45 19t45 -19t19 -45v-234z" />
    <glyph glyph-name="uniE624" unicode="&#xe624;" 
d="M896 768q34 0 60 -26t26 -60v-512q0 -34 -26 -59t-60 -25h-170v84h170v512h-768v-512h170v-84h-170q-34 0 -60 25t-26 59v512q0 34 26 60t60 26h768zM256 -42l256 256l256 -256h-512z" />
    <glyph glyph-name="uniE625" unicode="&#xe625;" 
d="M640 426h214l-172 172h-42v-172zM746 150q26 0 45 19t19 45t-19 45t-45 19t-45 -19t-19 -45t19 -45t45 -19zM554 426v172h-170v-172h170zM256 150q28 0 46 19t18 45t-18 45t-46 19t-46 -19t-18 -45t18 -45t46 -19zM128 426h170v172h-170v-172zM726 682l256 -256v-212
h-108q0 -52 -38 -90t-90 -38t-90 38t-38 90h-234q0 -52 -38 -90t-90 -38t-90 38t-38 90h-86v384q0 36 25 60t61 24h598z" />
    <glyph glyph-name="uniE626" unicode="&#xe626;" 
d="M512 42q124 0 211 88t87 212t-87 211t-211 87t-211 -87t-87 -211t87 -212t211 -88zM512 726q160 0 272 -113t112 -271t-112 -271t-272 -113t-272 113t-112 271t112 271t272 113zM534 554v-224l170 -100l-32 -52l-202 120v256h64zM336 752l-196 -164l-54 64l196 164z
M938 652l-54 -66l-196 166l54 64z" />
    <glyph glyph-name="uniE627" unicode="&#xe627;" 
d="M554 512v-128h128v-86h-128v-128h-84v128h-128v86h128v128h84zM512 42q124 0 211 88t87 212t-87 211t-211 87t-211 -87t-87 -211t87 -212t211 -88zM512 726q160 0 272 -113t112 -271t-112 -271t-272 -113t-272 113t-112 271t112 271t272 113zM938 652l-54 -66l-196 166
l54 64zM336 752l-196 -164l-54 64l196 164z" />
    <glyph glyph-name="uniE628" unicode="&#xe628;" 
d="M448 256l-96 128l-74 -96l-54 64l-74 -96h298zM512 512v-256q0 -34 -26 -60t-60 -26h-256q-34 0 -59 26t-25 60v256q0 34 25 60t59 26h256q34 0 60 -26t26 -60zM598 170v86h340v-86h-340zM938 598v-86h-340v86h340zM938 342h-340v84h340v-84z" />
    <glyph glyph-name="uniE629" unicode="&#xe629;" 
d="M896 84v600h-768v-600h768zM896 768q34 0 60 -26t26 -60v-596q0 -34 -26 -60t-60 -26h-768q-34 0 -60 26t-26 60v596q0 34 26 60t60 26h768zM298 512v-128h-84v214h212v-86h-128zM810 384v-214h-212v86h128v128h84z" />
    <glyph glyph-name="uniE62A" unicode="&#xe62a;" 
d="M726 170v172h-86v-172h86zM554 170v428h-84v-428h84zM384 170v300h-86v-300h86zM810 768q34 0 60 -26t26 -60v-596q0 -34 -26 -60t-60 -26h-596q-34 0 -60 26t-26 60v596q0 34 26 60t60 26h596z" />
    <glyph glyph-name="uniE62B" unicode="&#xe62b;" 
d="M726 512v86h-428v-86h428zM726 342v84h-428v-84h428zM598 170v86h-300v-86h300zM512 768q-18 0 -30 -12t-12 -30t12 -31t30 -13t30 13t12 31t-12 30t-30 12zM810 768q34 0 60 -26t26 -60v-596q0 -34 -26 -60t-60 -26h-596q-34 0 -60 26t-26 60v596q0 34 26 60t60 26h178
q14 38 46 62t74 24t74 -24t46 -62h178z" />
    <glyph glyph-name="uniE62C" unicode="&#xe62c;" 
d="M768 86v60q0 58 -88 95t-168 37t-168 -37t-88 -95v-60h512zM512 598q-52 0 -90 -38t-38 -90t38 -90t90 -38t90 38t38 90t-38 90t-90 38zM512 768q-18 0 -30 -12t-12 -30t12 -31t30 -13t30 13t12 31t-12 30t-30 12zM810 768q34 0 60 -26t26 -60v-596q0 -34 -26 -60
t-60 -26h-596q-34 0 -60 26t-26 60v596q0 34 26 60t60 26h178q14 38 46 62t74 24t74 -24t46 -62h178z" />
    <glyph glyph-name="uniE62D" unicode="&#xe62d;" 
d="M512 682q18 0 30 13t12 31t-12 30t-30 12t-30 -12t-12 -30t12 -31t30 -13zM554 298v256h-84v-256h84zM554 128v86h-84v-86h84zM810 768q34 0 60 -26t26 -60v-596q0 -34 -26 -60t-60 -26h-596q-34 0 -60 26t-26 60v596q0 34 26 60t60 26h178q14 38 46 62t74 24t74 -24
t46 -62h178z" />
    <glyph glyph-name="uniE62E" unicode="&#xe62e;" 
d="M512 426q18 0 30 -12t12 -30t-12 -30t-30 -12t-30 12t-12 30t12 30t30 12zM512 192q80 0 136 56t56 136t-56 136t-136 56t-136 -56t-56 -136t56 -136t136 -56zM512 810q176 0 301 -125t125 -301t-125 -301t-301 -125t-301 125t-125 301t125 301t301 125z" />
    <glyph glyph-name="uniE62F" unicode="&#xe62f;" horiz-adv-x="1025" 
d="M794 614q96 0 163 -68t67 -162t-67 -162t-163 -68t-164 68l-54 48l64 56l50 -42q44 -44 104 -44t102 42t42 102t-42 102t-102 42t-102 -42q-142 -124 -180 -160l-120 -106q-66 -66 -162 -66t-163 68t-67 162t67 162t163 68t164 -68l54 -48l-66 -56l-48 42q-44 44 -104 44
t-102 -42t-42 -102t42 -102t102 -42t102 42q142 124 180 160l120 106q66 66 162 66z" />
    <glyph glyph-name="uniE630" unicode="&#xe630;" 
d="M686 212q68 68 68 165t-68 165t-165 68t-165 -68t-68 -165t68 -165t165 -68t165 68zM732 588q88 -88 88 -212t-88 -210t-212 -86t-210 86t-86 210t86 212t210 88t212 -88zM180 548v170h170zM350 36h-170v170zM862 206v-170h-170zM692 718h170v-170z" />
    <glyph glyph-name="uniE631" unicode="&#xe631;" 
d="M640 681v44h-42v-44h42zM426 681v44h-42v-44h42zM662 803q106 -76 106 -206h-512q0 132 104 206l-56 56q-16 16 0 30t30 0l64 -64q52 28 114 28q60 0 112 -28l64 64q16 14 30 0t0 -30zM874 553q26 0 45 -19t19 -45v-297q0 -28 -19 -46t-45 -18t-45 18t-19 46v297
q0 26 19 45t45 19zM150 553q26 0 45 -19t19 -45v-297q0 -28 -19 -46t-45 -18t-45 18t-19 46v297q0 26 19 45t45 19zM256 128v425h512v-425q0 -18 -12 -30t-30 -12h-44v-150q0 -28 -19 -46t-45 -18t-45 18t-19 46v150h-84v-150q0 -28 -19 -46t-45 -18t-45 18t-19 46v150h-44
q-18 0 -30 12t-12 30z" />
    <glyph glyph-name="uniE632" unicode="&#xe632;" 
d="M554 256v86h-84v-86h84zM554 426v256h-84v-256h84zM854 810q34 0 59 -25t25 -59v-512q0 -34 -25 -60t-59 -26h-598l-170 -170v768q0 34 25 59t59 25h684z" />
    <glyph glyph-name="uniE633" unicode="&#xe633;" 
d="M682 42v172h172v-172h-172zM682 298v172h172v-172h-172zM426 554v172h172v-172h-172zM682 726h172v-172h-172v172zM426 298v172h172v-172h-172zM170 298v172h172v-172h-172zM170 42v172h172v-172h-172zM426 42v172h172v-172h-172zM170 554v172h172v-172h-172z" />
    <glyph glyph-name="uniE634" unicode="&#xe634;" 
d="M218 682h588l-40 44h-512zM512 150l234 234h-148v86h-172v-86h-148zM876 672q20 -24 20 -54v-532q0 -34 -26 -60t-60 -26h-596q-34 0 -60 26t-26 60v532q0 30 20 54l58 72q20 24 50 24h512q30 0 50 -24z" />
    <glyph glyph-name="uniE635" unicode="&#xe635;" 
d="M854 426v-84h-520l238 -240l-60 -60l-342 342l342 342l60 -60l-238 -240h520z" />
    <glyph glyph-name="uniE636" unicode="&#xe636;" 
d="M854 384l-342 -342l-342 342l62 60l238 -238v520h84v-520l240 238z" />
    <glyph glyph-name="uniE637" unicode="&#xe637;" 
d="M298 470h428l-214 -214z" />
    <glyph glyph-name="uniE638" unicode="&#xe638;" 
d="M512 298l170 172h-340zM512 810q176 0 301 -125t125 -301t-125 -301t-301 -125t-301 125t-125 301t125 301t301 125z" />
    <glyph glyph-name="uniE639" unicode="&#xe639;" 
d="M298 298l214 214l214 -214h-428z" />
    <glyph glyph-name="uniE63A" unicode="&#xe63a;" 
d="M512 726l342 -342l-342 -342l-60 60l238 240h-520v84h520l-238 240z" />
    <glyph glyph-name="uniE63B" unicode="&#xe63b;" 
d="M170 384l342 342l342 -342l-62 -60l-238 238v-520h-84v520l-240 -238z" />
    <glyph glyph-name="uniE63C" unicode="&#xe63c;" 
d="M668 726q24 0 41 -17t17 -41v-654q0 -24 -17 -40t-41 -16h-312q-24 0 -41 16t-17 40v654q0 24 17 41t41 17h70v84h172v-84h70z" />
    <glyph glyph-name="uniE63D" unicode="&#xe63d;" 
d="M418 719l-2 -66h-266v-50h269v-88h-222v-48l225 2l227 2l-4 -16q-8 -30 -32 -87t-30 -60q-8 -2 -74 17q-85 26 -136.5 35.5t-108.5 9.5q-58 -1 -99 -12.5t-77 -37.5q-71 -50 -75.5 -133.5t60.5 -138.5q70 -59 175 -64t209 45q36 18 90.5 57t76.5 64l12 14l38 -19
q29 -15 157.5 -74t158.5 -72l22 -9v173l-59 15q-41 11 -121 36t-112 38l-17 6l23 46q17 36 43.5 111t26.5 89q0 7 -20 9t-98 2h-117v88h282v44q0 4 -141 3l-141 -1v136h-141zM391 280q67 -23 104 -42l39 -21l-22 -27q-23 -28 -63 -58q-57 -43 -114 -60.5t-125 -13.5
q-144 8 -153 118q-3 33 5 54.5t32 39.5q29 22 60.5 29t96.5 5q48 -1 73.5 -5.5t66.5 -18.5z" />
    <glyph glyph-name="uniE63E" unicode="&#xe63e;" 
d="M610 354q30 30 30 72q0 52 -38 90t-90 38t-90 -38t-38 -90h64q0 26 18 45t46 19t46 -19t18 -45t-18 -44l-40 -40q-40 -40 -40 -86h68q0 32 36 68zM552 130v82h-80v-82h80zM668 726q24 0 41 -17t17 -41v-654q0 -24 -17 -40t-41 -16h-312q-24 0 -41 16t-17 40v654
q0 24 17 41t41 17h70v84h172v-84h70z" />
    <glyph glyph-name="uniE63F" unicode="&#xe63f;" 
d="M742 520q-100 100 -231 132t-255 -10q96 12 211 -37t213 -147l-244 -244q-98 98 -147 213t-37 211q-42 -124 -10 -255t132 -231l-122 -122q-126 126 -126 305t126 305q0 2 2 2q140 140 336 124q162 -12 274 -124zM558 274l62 62l274 -276l-62 -60z" />
    <glyph glyph-name="uniE640" unicode="&#xe640;" 
d="M426 214l384 384l-60 60l-324 -324l-152 152l-60 -60zM810 854q34 0 60 -26t26 -60v-552q0 -42 -38 -70l-346 -232l-346 232q-38 28 -38 70v552q0 34 26 60t60 26h596z" />
    <glyph glyph-name="uniE641" unicode="&#xe641;" 
d="M682 256v170h-170v128l-214 -212l214 -214v128h170zM512 768q-18 0 -30 -12t-12 -30t12 -31t30 -13t30 13t12 31t-12 30t-30 12zM810 768q34 0 60 -26t26 -60v-596q0 -34 -26 -60t-60 -26h-596q-34 0 -60 26t-26 60v596q0 34 26 60t60 26h178q14 38 46 62t74 24t74 -24
t46 -62h178z" />
    <glyph glyph-name="uniE642" unicode="&#xe642;" 
d="M512 128l214 214h-128v170h-172v-170h-128zM512 768q-18 0 -30 -12t-12 -30t12 -31t30 -13t30 13t12 31t-12 30t-30 12zM810 768q34 0 60 -26t26 -60v-596q0 -34 -26 -60t-60 -26h-596q-34 0 -60 26t-26 60v596q0 34 26 60t60 26h178q14 38 46 62t74 24t74 -24t46 -62
h178z" />
    <glyph glyph-name="uniE643" unicode="&#xe643;" 
d="M426 170l342 342l-60 60l-282 -280l-110 110l-60 -60zM512 768q-18 0 -30 -12t-12 -30t12 -31t30 -13t30 13t12 31t-12 30t-30 12zM810 768q34 0 60 -26t26 -60v-596q0 -34 -26 -60t-60 -26h-596q-34 0 -60 26t-26 60v596q0 34 26 60t60 26h178q14 38 46 62t74 24t74 -24
t46 -62h178z" />
    <glyph glyph-name="uniE644" unicode="&#xe644;" 
d="M592 346l176 80l-176 80l-80 176l-80 -176l-176 -80l176 -80l80 -176zM810 810q34 0 60 -25t26 -59v-598q0 -34 -26 -60t-60 -26h-170l-128 -128l-128 128h-170q-34 0 -60 26t-26 60v598q0 34 26 59t60 25h596z" />
    <glyph glyph-name="uniE645" unicode="&#xe645;" 
d="M614 640h240v-426h-300l-16 84h-240v-298h-84v726h384z" />
    <glyph glyph-name="uniE646" unicode="&#xe646;" 
d="M704 640h64v-490q0 -98 -68 -167t-166 -69t-167 69t-69 167v532q0 70 51 121t121 51t120 -51t50 -121v-448q0 -44 -31 -75t-75 -31t-76 31t-32 75v406h64v-406q0 -18 13 -30t31 -12t30 12t12 30v448q0 44 -31 76t-75 32t-76 -32t-32 -76v-532q0 -70 51 -121t121 -51
t120 51t50 121v490z" />
    <glyph glyph-name="uniE647" unicode="&#xe647;" 
d="M504 430q44 -12 73 -24t61 -33t49 -53t17 -76q0 -62 -41 -101t-109 -51v-92h-128v92q-66 14 -109 56t-47 108h94q8 -90 126 -90q62 0 89 23t27 53q0 72 -128 104q-200 46 -200 176q0 58 42 99t106 55v92h128v-94q66 -16 101 -60t37 -102h-94q-4 90 -108 90q-52 0 -83 -22
t-31 -58q0 -58 128 -92z" />
    <glyph glyph-name="uniE648" unicode="&#xe648;" 
d="M86 362q0 98 68 167t166 69h448q70 0 120 -51t50 -121t-50 -120t-120 -50h-362q-44 0 -76 31t-32 75t32 76t76 32h320v-86h-324q-18 0 -18 -21t18 -21h366q34 0 60 25t26 59t-26 60t-60 26h-448q-62 0 -106 -44t-44 -106t44 -105t106 -43h406v-86h-406q-98 0 -166 68
t-68 166z" />
    <glyph glyph-name="uniE649" unicode="&#xe649;" 
d="M512 768h298v-128h-170v-470h-2q-8 -72 -62 -121t-128 -49q-80 0 -136 56t-56 136t56 136t136 56q34 0 64 -12v396z" />
    <glyph glyph-name="uniE64A" unicode="&#xe64a;" 
d="M800 566q54 -82 54 -182q0 -140 -101 -241t-241 -101v-128l-170 172l170 170v-128q106 0 181 75t75 181q0 60 -30 120zM512 640q-106 0 -181 -75t-75 -181q0 -66 30 -120l-62 -62q-54 82 -54 182q0 140 101 241t241 101v128l170 -172l-170 -170v128z" />
    <glyph glyph-name="uniE64B" unicode="&#xe64b;" 
d="M256 384q0 18 12 30t30 12t31 -12t13 -30t-13 -30t-31 -12t-30 12t-12 30zM768 384q0 -18 -12 -30t-30 -12t-31 12t-13 30t13 30t31 12t30 -12t12 -30zM470 768h42q160 0 272 -112t112 -272t-112 -272t-272 -112t-272 112t-112 272q0 192 154 306v2l290 -290l-60 -60
l-232 230q-66 -82 -66 -188q0 -124 87 -211t211 -87t211 87t87 211q0 112 -74 196t-182 100v-82h-84v170zM470 170q0 18 12 31t30 13t30 -13t12 -31t-12 -30t-30 -12t-30 12t-12 30z" />
    <glyph glyph-name="uniE64C" unicode="&#xe64c;" horiz-adv-x="1025" 
d="M810 230l-152 154l152 154l-60 60l-152 -154l-154 154l-60 -60l154 -154l-154 -154l60 -60l154 154l152 -154zM938 768q34 0 60 -26t26 -60v-596q0 -34 -26 -60t-60 -26h-640q-40 0 -68 38l-230 346l230 346q28 38 68 38h640z" />
    <glyph glyph-name="uniE64D" unicode="&#xe64d;" horiz-adv-x="1025" 
d="M598 342h128l-214 212l-214 -212h128v-172h172v172zM826 468q82 -6 140 -67t58 -145q0 -88 -63 -151t-151 -63h-554q-106 0 -181 75t-75 181q0 98 66 171t162 83q42 78 118 126t166 48q116 0 204 -73t110 -185z" />
    <glyph glyph-name="uniE64E" unicode="&#xe64e;" 
d="M554 298v214h-84v-214h84zM554 128v86h-84v-86h84zM668 726q24 0 41 -17t17 -41v-654q0 -24 -17 -40t-41 -16h-312q-24 0 -41 16t-17 40v654q0 24 17 41t41 17h70v84h172v-84h70z" />
    <glyph glyph-name="uniE64F" unicode="&#xe64f;" 
d="M470 42l170 320h-86v236l-170 -320h86v-236zM668 726q24 0 41 -17t17 -41v-654q0 -24 -17 -40t-41 -16h-312q-24 0 -41 16t-17 40v654q0 24 17 41t41 17h70v84h172v-84h70z" />
    <glyph glyph-name="uniE650" unicode="&#xe650;" 
d="M810 0v86h86v-86h-86zM640 0v86h86v-86h-86zM470 170v86h84v-86h-84zM810 512v86h86v-86h-86zM810 768h86v-86h-86v86zM128 342v84h768v-84h-768zM470 0v86h84v-86h-84zM810 170v86h86v-86h-86zM554 768v-86h-84v86h84zM554 598v-86h-84v86h84zM726 768v-86h-86v86h86z
M384 768v-86h-86v86h86zM214 768v-86h-86v86h86zM298 0v86h86v-86h-86zM128 170v86h86v-86h-86zM214 598v-86h-86v86h86zM128 0v86h86v-86h-86z" />
    <glyph glyph-name="uniE651" unicode="&#xe651;" 
d="M810 170v86h86v-86h-86zM810 0v86h86v-86h-86zM554 768v-342h342v-84h-342v-342h-84v342h-342v84h342v342h84zM640 0v86h86v-86h-86zM810 768h86v-86h-86v86zM810 512v86h86v-86h-86zM726 768v-86h-86v86h86zM214 768v-86h-86v86h86zM384 768v-86h-86v86h86zM128 170v86
h86v-86h-86zM214 598v-86h-86v86h86zM298 0v86h86v-86h-86zM128 0v86h86v-86h-86z" />
    <glyph glyph-name="uniE652" unicode="&#xe652;" 
d="M640 682v86h86v-86h-86zM640 342v84h86v-84h-86zM810 0v86h86v-86h-86zM810 342v84h86v-84h-86zM810 768h86v-86h-86v86zM810 170v86h86v-86h-86zM640 0v86h86v-86h-86zM810 512v86h86v-86h-86zM128 0v768h86v-768h-86zM298 342v84h86v-84h-86zM298 682v86h86v-86h-86z
M298 0v86h86v-86h-86zM470 342v84h84v-84h-84zM470 512v86h84v-86h-84zM470 682v86h84v-86h-84zM470 170v86h84v-86h-84zM470 0v86h84v-86h-84z" />
    <glyph glyph-name="uniE653" unicode="&#xe653;" 
d="M512 42q140 0 241 101t101 241q0 120 -72 210l-480 -480q90 -72 210 -72zM170 384q0 -120 72 -210l480 480q-90 72 -210 72q-140 0 -241 -101t-101 -241zM512 810q176 0 301 -125t125 -301t-125 -301t-301 -125t-301 125t-125 301t125 301t301 125z" />
    <glyph glyph-name="uniE654" unicode="&#xe654;" 
d="M634 200l-80 82v-162zM554 648v-162l80 82zM756 568l-184 -184l184 -184l-244 -242h-42v324l-196 -196l-60 60l238 238l-238 238l60 60l196 -196v324h42z" />
    <glyph glyph-name="uniE655" unicode="&#xe655;" 
d="M550 200l-80 82v-162zM470 648v-162l80 82zM670 568l-184 -184l184 -184l-244 -242h-42v324l-196 -196l-60 60l238 238l-238 238l60 60l196 -196v324h42zM834 610q62 -100 62 -222t-66 -226l-50 50q42 84 42 172t-42 172zM608 384l98 98q20 -50 20 -98q0 -50 -20 -100z
" />
    <glyph glyph-name="uniE656" unicode="&#xe656;" 
d="M810 470l86 -86l-86 -86l-84 86zM634 200l-80 82v-162zM554 648v-162l80 82zM756 568l-184 -184l184 -184l-244 -242h-42v324l-196 -196l-60 60l238 238l-238 238l60 60l196 -196v324h42zM298 384l-84 -86l-86 86l86 86z" />
    <glyph glyph-name="uniE657" unicode="&#xe657;" 
d="M554 120l80 80l-80 82v-162zM230 726l624 -624l-60 -60l-98 98l-184 -182h-42v324l-196 -196l-60 60l238 238l-282 282zM554 648v-138l-84 86v214h42l244 -242l-130 -130l-60 60l68 70z" />
    <glyph glyph-name="uniE658" unicode="&#xe658;" 
d="M370 857q-21 -8 -40 -29q-39 -43 -38 -119q0 -27 3 -41t14 -36q22 -49 61.5 -62.5t74.5 15.5q46 36 53 108.5t-30 124.5q-9 14 -34.5 30.5t-36.5 15.5q-9 -1 -27 -7zM653 835q-15 -4 -43 -31.5t-39 -50.5q-19 -38 -18 -82.5t21 -74.5q18 -27 52.5 -36.5t65.5 3.5
q42 17 68.5 70t16.5 98q-11 50 -48.5 81t-75.5 23zM150 636q-21 -7 -41 -30t-28 -48q-32 -104 23 -167q21 -23 38 -30t47 -5q60 5 88 62q9 18 11.5 31.5t2.5 44.5q0 48 -12 69q-24 47 -65 67q-23 12 -33 13t-31 -7zM783 562q-58 -30 -58 -135q0 -40 5.5 -61.5t20.5 -39.5
q34 -38 97 -33q28 3 45.5 11.5t29.5 26.5q13 19 17.5 40t4.5 61q0 32 -2.5 45t-11.5 31q-17 31 -39 45.5t-56 15.5q-35 2 -53 -7zM446 460q-26 -12 -43.5 -27t-34.5 -40q-23 -34 -49.5 -62t-73.5 -69q-71 -62 -93 -95.5t-23 -81.5q-1 -58 29 -104t77 -60q27 -8 87.5 -6
t113.5 13q80 15 176 -9q50 -13 100.5 -13t79.5 13q54 24 78 88t1 125q-11 30 -43 60q-57 53 -112.5 110t-75.5 85q-47 62 -93 77q-21 7 -51 6t-50 -10zM462 313q5 -3 6.5 -32t3.5 -131l1 -157h-62q-58 0 -86 7t-48 28q-18 19 -24 35.5t-6 47.5q0 30 5.5 46.5t22.5 33.5
q20 22 41 30t57 8h42v89h20q19 0 27 -5zM567 147v-41q0 -12 2.5 -26t4.5 -17.5t10.5 -7.5t15.5 -4h23h39v168h64l-2 -101q0 -6 -1 -18v-34q0 -10 -2 -24.5t-2.5 -19t-6.5 -11.5t-9 -8t-14.5 -3t-18.5 -2h-27h-14q-55 0 -74.5 5.5t-34.5 23.5q-7 10 -9 26t-2 76q0 88 4 91
q3 4 29 4h25v-77zM337 171q-22 -13 -29 -39t4 -53q16 -36 70 -33l30 2v131l-29 2q-28 1 -46 -10z" />
    <glyph glyph-name="uniE659" unicode="&#xe659;" 
d="M598 342q18 0 30 -13t12 -31t-12 -30t-30 -12t-31 12t-13 30t13 31t31 13zM598 192q20 0 20 -22q0 -20 -20 -20q-22 0 -22 20q0 22 22 22zM512 42q140 0 241 101t101 241t-101 241t-241 101t-241 -101t-101 -241t101 -241t241 -101zM512 810q176 0 301 -125t125 -301
t-125 -301t-301 -125t-301 125t-125 301t125 301t301 125zM726 490q20 0 20 -20q0 -22 -20 -22q-22 0 -22 22q0 20 22 20zM726 320q20 0 20 -22q0 -20 -20 -20q-22 0 -22 20q0 22 22 22zM598 576q-22 0 -22 22q0 20 22 20q20 0 20 -20q0 -22 -20 -22zM598 512q18 0 30 -12
t12 -30t-12 -31t-30 -13t-31 13t-13 31t13 30t31 12zM426 576q-20 0 -20 22q0 20 20 20q22 0 22 -20q0 -22 -22 -22zM298 320q22 0 22 -22q0 -20 -22 -20q-20 0 -20 20q0 22 20 22zM426 192q22 0 22 -22q0 -20 -22 -20q-20 0 -20 20q0 22 20 22zM298 490q22 0 22 -20
q0 -22 -22 -22q-20 0 -20 22q0 20 20 20zM426 342q18 0 31 -13t13 -31t-13 -30t-31 -12t-30 12t-12 30t12 31t30 13zM426 512q18 0 31 -12t13 -30t-13 -31t-31 -13t-30 13t-12 31t12 30t30 12z" />
    <glyph glyph-name="uniE65A" unicode="&#xe65a;" 
d="M554 170q-18 0 -30 13t-12 31t12 30t30 12t31 -12t13 -30t-13 -31t-31 -13zM554 342q-18 0 -30 12t-12 30t12 30t30 12t31 -12t13 -30t-13 -30t-31 -12zM554 512q-18 0 -30 12t-12 30t12 31t30 13t31 -13t13 -31t-13 -30t-31 -12zM726 362q-22 0 -22 22t22 22
q20 0 20 -22t-20 -22zM726 534q-22 0 -22 20q0 22 22 22q20 0 20 -22q0 -20 -20 -20zM128 768h768v-86h-768v86zM726 192q-22 0 -22 22q0 20 22 20q20 0 20 -20q0 -22 -20 -22zM384 170q-18 0 -30 13t-12 31t12 30t30 12t30 -12t12 -30t-12 -31t-30 -13zM214 320
q-26 0 -45 18t-19 46t19 46t45 18t45 -18t19 -46t-19 -46t-45 -18zM214 490q-26 0 -45 19t-19 45t19 45t45 19t45 -19t19 -45t-19 -45t-45 -19zM128 0v86h768v-86h-768zM384 512q-18 0 -30 12t-12 30t12 31t30 13t30 -13t12 -31t-12 -30t-30 -12zM384 342q-18 0 -30 12
t-12 30t12 30t30 12t30 -12t12 -30t-12 -30t-30 -12zM214 150q-26 0 -45 19t-19 45t19 45t45 19t45 -19t19 -45t-19 -45t-45 -19z" />
    <glyph glyph-name="uniE65B" unicode="&#xe65b;" 
d="M128 320q22 0 22 -22q0 -20 -22 -20t-22 20q0 22 22 22zM256 170q18 0 30 -12t12 -30t-12 -30t-30 -12t-30 12t-12 30t12 30t30 12zM426 22q22 0 22 -22t-22 -22q-20 0 -20 22t20 22zM128 490q22 0 22 -20q0 -22 -22 -22t-22 22q0 20 22 20zM256 342q18 0 30 -13t12 -31
t-12 -30t-30 -12t-30 12t-12 30t12 31t30 13zM896 320q22 0 22 -22q0 -20 -22 -20t-22 20q0 22 22 22zM426 170q18 0 31 -12t13 -30t-13 -30t-31 -12t-30 12t-12 30t12 30t30 12zM106 672l54 54l694 -694l-56 -54l-160 162q2 -4 2 -12q0 -18 -12 -30t-30 -12t-31 12t-13 30
t13 30t31 12q8 0 12 -2l-120 120q-4 -22 -22 -38t-42 -16q-26 0 -45 19t-19 45q0 24 16 42t38 22l-120 120q2 -4 2 -12q0 -18 -12 -31t-30 -13t-30 13t-12 31t12 30t30 12l12 -2zM598 22q20 0 20 -22t-20 -22q-22 0 -22 22t22 22zM768 598q-18 0 -30 12t-12 30t12 30t30 12
t30 -12t12 -30t-12 -30t-30 -12zM768 426q-18 0 -30 13t-12 31t12 30t30 12t30 -12t12 -30t-12 -31t-30 -13zM768 256q-18 0 -30 12t-12 30t12 31t30 13t30 -13t12 -31t-12 -30t-30 -12zM426 598q-18 0 -30 12t-12 30t12 30t30 12t31 -12t13 -30t-13 -30t-31 -12zM896 448
q-22 0 -22 22q0 20 22 20t22 -20q0 -22 -22 -22zM426 746q-20 0 -20 22t20 22q22 0 22 -22t-22 -22zM598 746q-22 0 -22 22t22 22q20 0 20 -22t-20 -22zM588 406q-20 2 -36 18t-18 36v10q0 26 19 45t45 19t45 -19t19 -45t-19 -45t-45 -19h-10zM598 598q-18 0 -31 12t-13 30
t13 30t31 12t30 -12t12 -30t-12 -30t-30 -12z" />
    <glyph glyph-name="uniE65C" unicode="&#xe65c;" 
d="M598 534q26 0 45 -19t19 -45t-19 -45t-45 -19t-45 19t-19 45t19 45t45 19zM598 362q26 0 45 -19t19 -45t-19 -45t-45 -19t-45 19t-19 45t19 45t45 19zM426 170q18 0 31 -12t13 -30t-13 -30t-31 -12t-30 12t-12 30t12 30t30 12zM426 534q26 0 45 -19t19 -45t-19 -45
t-45 -19t-45 19t-19 45t19 45t45 19zM598 22q20 0 20 -22t-20 -22q-22 0 -22 22t22 22zM598 170q18 0 30 -12t12 -30t-12 -30t-30 -12t-31 12t-13 30t13 30t31 12zM896 320q22 0 22 -22q0 -20 -22 -20t-22 20q0 22 22 22zM768 682q18 0 30 -12t12 -30t-12 -30t-30 -12
t-30 12t-12 30t12 30t30 12zM768 512q18 0 30 -12t12 -30t-12 -31t-30 -13t-30 13t-12 31t12 30t30 12zM768 170q18 0 30 -12t12 -30t-12 -30t-30 -12t-30 12t-12 30t12 30t30 12zM768 342q18 0 30 -13t12 -31t-12 -30t-30 -12t-30 12t-12 30t12 31t30 13zM426 362
q26 0 45 -19t19 -45t-19 -45t-45 -19t-45 19t-19 45t19 45t45 19zM426 598q-18 0 -30 12t-12 30t12 30t30 12t31 -12t13 -30t-13 -30t-31 -12zM426 746q-20 0 -20 22t20 22q22 0 22 -22t-22 -22zM426 22q22 0 22 -22t-22 -22q-20 0 -20 22t20 22zM128 320q22 0 22 -22
q0 -20 -22 -20t-22 20q0 22 22 22zM598 746q-22 0 -22 22t22 22q20 0 20 -22t-20 -22zM598 598q-18 0 -31 12t-13 30t13 30t31 12t30 -12t12 -30t-12 -30t-30 -12zM896 448q-22 0 -22 22q0 20 22 20t22 -20q0 -22 -22 -22zM256 682q18 0 30 -12t12 -30t-12 -30t-30 -12
t-30 12t-12 30t12 30t30 12zM128 490q22 0 22 -20q0 -22 -22 -22t-22 22q0 20 22 20zM256 512q18 0 30 -12t12 -30t-12 -31t-30 -13t-30 13t-12 31t12 30t30 12zM256 170q18 0 30 -12t12 -30t-12 -30t-30 -12t-30 12t-12 30t12 30t30 12zM256 342q18 0 30 -13t12 -31
t-12 -30t-30 -12t-30 12t-12 30t12 31t30 13z" />
    <glyph glyph-name="uniE65D" unicode="&#xe65d;" 
d="M256 726v-342l106 64l108 -64v342h-214zM768 810q34 0 60 -25t26 -59v-684q0 -34 -26 -59t-60 -25h-512q-34 0 -60 25t-26 59v684q0 34 26 59t60 25h512z" />
    <glyph glyph-name="uniE65E" unicode="&#xe65e;" 
d="M726 768q34 0 59 -26t25 -60v-682l-298 128l-298 -128v682q0 34 25 60t59 26h428z" />
    <glyph glyph-name="uniE65F" unicode="&#xe65f;" 
d="M726 128v554h-428v-554l214 94zM726 768q34 0 59 -26t25 -60v-682l-298 128l-298 -128v682q0 34 25 60t59 26h428z" />
    <glyph glyph-name="uniE660" unicode="&#xe660;" 
d="M810 426v256h-256v-256h256zM810 86v256h-256v-256h256zM470 426v256h-256v-256h256zM470 86v256h-256v-256h256zM128 768h768v-768h-768v768z" />
    <glyph glyph-name="uniE661" unicode="&#xe661;" 
d="M214 256v-86h-86v86h86zM128 0v86h768v-86h-768zM214 426v-84h-86v84h86zM810 512v86h86v-86h-86zM810 768h86v-86h-86v86zM214 598v-86h-86v86h86zM810 170v86h86v-86h-86zM810 342v84h86v-84h-86zM726 768v-86h-86v86h86zM554 768v-86h-84v86h84zM726 426v-84h-86v84
h86zM554 598v-86h-84v86h84zM214 768v-86h-86v86h86zM554 426v-84h-84v84h84zM384 768v-86h-86v86h86zM554 256v-86h-84v86h84zM384 426v-84h-86v84h86z" />
    <glyph glyph-name="uniE662" unicode="&#xe662;" 
d="M640 682v86h86v-86h-86zM640 342v84h86v-84h-86zM640 0v86h86v-86h-86zM470 682v86h84v-86h-84zM810 768h86v-86h-86v86zM470 512v86h84v-86h-84zM810 512v86h86v-86h-86zM810 0v86h86v-86h-86zM810 342v84h86v-84h-86zM810 170v86h86v-86h-86zM470 342v84h84v-84h-84z
M128 682v86h86v-86h-86zM128 512v86h86v-86h-86zM128 342v84h86v-84h-86zM128 170v86h86v-86h-86zM128 0v86h86v-86h-86zM470 0v86h84v-86h-84zM470 170v86h84v-86h-84zM298 0v86h86v-86h-86zM298 342v84h86v-84h-86zM298 682v86h86v-86h-86z" />
    <glyph glyph-name="uniE663" unicode="&#xe663;" 
d="M0 42h1024v-170h-1024v170zM884 724l-84 -84l-160 160l84 84q12 12 30 12t30 -12l100 -100q12 -12 12 -30t-12 -30zM758 598l-428 -428h-160v160l428 428z" />
    <glyph glyph-name="uniE664" unicode="&#xe664;" 
d="M707 811q4 -20 10.5 -28t24.5 -14q43 -16 60 -43q20 -33 -9 -75.5t-96 -81.5t-154 -62q-41 -11 -43 -8q-3 2 5.5 41t16.5 66q19 55 46 76.5t54 3.5q12 -7 28 -4q17 5 17 9q0 9 -18 36.5t-35 45.5q-43 44 -89 44q-106 0 -169 -189q-16 -51 -24 -97l-7 -47l-19 3
q-39 6 -70 21.5t-41 34.5q-19 37 14 82t110 84l38 20l-3 15q-3 15 -6 18q-2 3 -43.5 -15.5t-71.5 -35.5q-76 -45 -124 -100t-53 -104q-5 -39 19.5 -76t69.5 -58q63 -30 141 -38h9q19 -2 22.5 -8t7.5 -42q1 -11 2 -17q10 -93 41.5 -170.5t75.5 -117.5q43 -41 91 -36
q58 6 106 78t72 187q8 41 8 54q0 10 -5 10.5t-39 -9.5l-21 -6l-5 -31q-5 -33 -16.5 -67t-22.5 -49q-25 -34 -49 -21t-43 73q-22 69 -26 153l-1 27l46 10q111 24 209.5 73.5t155.5 109.5q81 85 61.5 158.5t-132.5 110.5q-19 7 -55.5 13t-54.5 6h-19z" />
    <glyph glyph-name="uniE665" unicode="&#xe665;" 
d="M610 214h82l-138 384h-84l-138 -384h82l30 84h136zM854 526l140 -142l-140 -142v-200h-200l-142 -140l-142 140h-200v200l-140 142l140 142v200h200l142 140l142 -140h200v-200zM462 356l50 156l50 -156h-100z" />
    <glyph glyph-name="uniE666" unicode="&#xe666;" 
d="M512 554q70 0 120 -50t50 -120t-50 -120t-120 -50t-120 50t-50 120t50 120t120 50zM512 128q106 0 181 75t75 181t-75 181t-181 75t-181 -75t-75 -181t75 -181t181 -75zM854 526l140 -142l-140 -142v-200h-200l-142 -140l-142 140h-200v200l-140 142l140 142v200h200
l142 140l142 -140h200v-200z" />
    <glyph glyph-name="uniE667" unicode="&#xe667;" 
d="M512 128q106 0 181 75t75 181t-75 181t-181 75t-181 -75t-75 -181t75 -181t181 -75zM854 242v-200h-200l-142 -140l-142 140h-200v200l-140 142l140 142v200h200l142 140l142 -140h200v-200l140 -142z" />
    <glyph glyph-name="uniE668" unicode="&#xe668;" 
d="M512 128q106 0 181 75t75 181t-75 181t-181 75v-512zM854 242v-200h-200l-142 -140l-142 140h-200v200l-140 142l140 142v200h200l142 140l142 -140h200v-200l140 -142z" />
    <glyph glyph-name="uniE669" unicode="&#xe669;" 
d="M768 408l128 -128v-194q0 -34 -26 -60t-60 -26h-596q-34 0 -60 26t-26 60v280l128 -128l170 172l172 -172zM896 682v-280l-128 128l-170 -172l-172 172l-170 -172l-128 130v194q0 34 26 60t60 26h596q34 0 60 -26t26 -60z" />
    <glyph glyph-name="uniE66A" unicode="&#xe66a;" 
d="M884 698q12 -12 12 -30t-12 -30l-382 -382l-118 118l382 382q12 12 30 12t30 -12zM298 298q52 0 90 -38t38 -90q0 -70 -50 -120t-120 -50q-104 0 -170 86q30 0 57 23t27 61q0 52 38 90t90 38z" />
    <glyph glyph-name="uniE66B" unicode="&#xe66b;" 
d="M598 384v86h-172v-86h172zM598 214v84h-172v-84h172zM854 554v-84h-90q4 -28 4 -44v-42h86v-86h-86v-42q0 -14 -4 -42h90v-86h-120q-34 -58 -93 -93t-129 -35t-129 35t-93 93h-120v86h90q-4 28 -4 42v42h-86v86h86v42q0 16 4 44h-90v84h120q30 50 78 84l-70 70l60 60
l94 -92q30 6 60 6t60 -6l94 92l60 -60l-70 -70q48 -34 78 -84h120z" />
    <glyph glyph-name="uniE66C" unicode="&#xe66c;" 
d="M968 86q14 -8 13 -27t-17 -33l-98 -98q-30 -30 -60 0l-388 388q-72 -30 -153 -13t-141 77q-64 64 -80 152t24 164l188 -184l128 128l-184 184q76 36 164 22t152 -78q60 -60 77 -141t-13 -153z" />
    <glyph glyph-name="uniE66D" unicode="&#xe66d;" 
d="M384 426v-84h-86v84h86zM554 256v-86h-84v86h84zM810 86v596h-596v-596h596zM128 768h768v-768h-768v768zM726 426v-84h-86v84h86zM554 426v-84h-84v84h84zM554 598v-86h-84v86h84z" />
    <glyph glyph-name="uniE66E" unicode="&#xe66e;" 
d="M470 512v86h84v-86h-84zM470 682v86h84v-86h-84zM470 342v84h84v-84h-84zM640 682v86h86v-86h-86zM640 0v86h86v-86h-86zM810 768h86v-768h-86v768zM640 342v84h86v-84h-86zM470 170v86h84v-86h-84zM128 512v86h86v-86h-86zM128 170v86h86v-86h-86zM128 342v84h86v-84
h-86zM470 0v86h84v-86h-84zM128 0v86h86v-86h-86zM298 342v84h86v-84h-86zM298 682v86h86v-86h-86zM128 682v86h86v-86h-86zM298 0v86h86v-86h-86z" />
    <glyph glyph-name="uniE66F" unicode="&#xe66f;" 
d="M810 512v86h86v-86h-86zM128 768h768v-86h-682v-682h-86v768zM810 342v84h86v-84h-86zM810 170v86h86v-86h-86zM470 0v86h84v-86h-84zM298 0v86h86v-86h-86zM810 0v86h86v-86h-86zM640 0v86h86v-86h-86z" />
    <glyph glyph-name="uniE670" unicode="&#xe670;" 
d="M640 342v84h86v-84h-86zM810 0v86h86v-86h-86zM470 512v86h84v-86h-84zM640 0v86h86v-86h-86zM810 170v86h86v-86h-86zM128 768h768v-86h-768v86zM810 342v84h86v-84h-86zM810 512v86h86v-86h-86zM470 170v86h84v-86h-84zM128 512v86h86v-86h-86zM128 342v84h86v-84h-86z
M128 0v86h86v-86h-86zM128 170v86h86v-86h-86zM470 0v86h84v-86h-84zM470 342v84h84v-84h-84zM298 342v84h86v-84h-86zM298 0v86h86v-86h-86z" />
    <glyph glyph-name="uniE671" unicode="&#xe671;" 
d="M640 342v84h86v-84h-86zM640 0v86h86v-86h-86zM640 682v86h86v-86h-86zM810 512v86h86v-86h-86zM810 768h86v-86h-86v86zM810 342v84h86v-84h-86zM810 0v86h86v-86h-86zM470 0v768h84v-768h-84zM810 170v86h86v-86h-86zM298 682v86h86v-86h-86zM128 170v86h86v-86h-86z
M128 0v86h86v-86h-86zM128 342v84h86v-84h-86zM298 342v84h86v-84h-86zM298 0v86h86v-86h-86zM128 682v86h86v-86h-86zM128 512v86h86v-86h-86z" />
    <glyph glyph-name="uniE672" unicode="&#xe672;" 
d="M86 384q0 176 125 301t301 125t301 -125t125 -301t-125 -301t-301 -125t-301 125t-125 301z" />
    <glyph glyph-name="uniE673" unicode="&#xe673;" 
d="M426 810q178 0 303 -125t125 -301t-125 -301t-303 -125q-116 0 -212 56q98 56 155 155t57 215t-57 215t-155 155q96 56 212 56z" />
    <glyph glyph-name="uniE674" unicode="&#xe674;" 
d="M384 810q176 0 301 -125t125 -301t-125 -301t-301 -125q-68 0 -128 18q132 40 215 153t83 255t-83 255t-215 153q60 18 128 18z" />
    <glyph glyph-name="uniE675" unicode="&#xe675;" 
d="M512 128q106 0 181 75t75 181t-75 181t-181 75q-52 0 -106 -24q66 -30 107 -93t41 -139t-41 -139t-107 -93q54 -24 106 -24zM854 526l140 -142l-140 -142v-200h-200l-142 -140l-142 140h-200v200l-140 142l140 142v200h200l142 140l142 -140h200v-200z" />
    <glyph glyph-name="uniE676" unicode="&#xe676;" 
d="M512 128q106 0 181 75t75 181t-75 181t-181 75t-181 -75t-75 -181t75 -181t181 -75zM854 242v-200h-200l-142 -140l-142 140h-200v200l-140 142l140 142v200h200l142 140l142 -140h200v-200l140 -142z" />
    <glyph glyph-name="uniE677" unicode="&#xe677;" 
d="M512 128q106 0 181 75t75 181t-75 181t-181 75v-512zM854 242v-200h-200l-142 -140l-142 140h-200v200l-140 142l140 142v200h200l142 140l142 -140h200v-200l140 -142z" />
    <glyph glyph-name="uniE678" unicode="&#xe678;" 
d="M512 640q34 0 59 26t25 60t-25 59t-59 25t-60 -25t-26 -59t25 -60t61 -26zM726 896q34 0 59 -26t25 -60v-596q0 -34 -25 -60t-59 -26h-300l128 -128l-128 -128v86h-212v84h212v86h-128q-34 0 -59 26t-25 60v596q0 34 25 60t59 26h428zM598 42h212v-84h-212v84z" />
    <glyph glyph-name="uniE679" unicode="&#xe679;" 
d="M854 512v86h-86v-86h86zM854 128v86h-86v-86h86zM682 512v86h-84v-86h84zM682 128v86h-84v-86h84zM512 512v86h-86v-86h86zM512 128v86h-86v-86h86zM598 682h340v-640h-340q0 -34 -26 -59t-60 -25h-342q-34 0 -59 25t-25 59v640q0 34 25 60t59 26h44v42q0 18 12 31t30 13
h170q18 0 31 -13t13 -31v-42h42q34 0 60 -26t26 -60z" />
    <glyph glyph-name="uniE67A" unicode="&#xe67a;" 
d="M726 230l-154 154l154 154l-60 60l-154 -154l-154 154l-60 -60l154 -154l-154 -154l60 -60l154 154l154 -154zM512 810q176 0 301 -125t125 -301t-125 -301t-301 -125t-301 125t-125 301t125 301t301 125z" />
    <glyph glyph-name="uniE67B" unicode="&#xe67b;" 
d="M854 298v256h-218l90 -120l-70 -50q-128 174 -144 196q-16 -22 -144 -196l-70 50l90 120h-218v-256h684zM854 86v84h-684v-84h684zM384 726q-18 0 -30 -13t-12 -31t12 -30t30 -12t30 12t12 30t-12 31t-30 13zM640 726q-18 0 -30 -13t-12 -31t12 -30t30 -12t30 12t12 30
t-12 31t-30 13zM854 640q36 0 60 -25t24 -61v-468q0 -36 -24 -61t-60 -25h-684q-36 0 -60 25t-24 61v468q0 36 24 61t60 25h94q-8 28 -8 42q0 52 38 90t90 38q66 0 106 -56l22 -30l22 30q40 56 106 56q52 0 90 -38t38 -90q0 -14 -8 -42h94z" />
    <glyph glyph-name="uniE67C" unicode="&#xe67c;" 
d="M768 256v-86h-86v86h86zM768 426v-84h-86v84h86zM854 86v426h-342v-86h86v-84h-86v-86h86v-86h-86v-84h342zM426 598v84h-84v-84h84zM426 426v86h-84v-86h84zM426 256v86h-84v-86h84zM426 86v84h-84v-84h84zM256 598v84h-86v-84h86zM256 426v86h-86v-86h86zM256 256v86
h-86v-86h86zM256 86v84h-86v-84h86zM512 598h426v-598h-852v768h426v-170z" />
    <glyph glyph-name="uniE67D" unicode="&#xe67d;" 
d="M598 598v84h-172v-84h172zM854 598q34 0 59 -26t25 -60v-128q0 -34 -25 -60t-59 -26h-256v86h-172v-86h-256q-36 0 -60 25t-24 61v128q0 34 25 60t59 26h170v84l86 86h170l86 -86v-84h172zM426 214h172v42h298v-170q0 -36 -25 -61t-61 -25h-596q-36 0 -61 25t-25 61v170
h298v-42z" />
    <glyph glyph-name="uniE67E" unicode="&#xe67e;" 
d="M256 384h128l-170 -170l-172 170h128q0 140 101 241t241 101q100 0 182 -54l-62 -62q-54 30 -120 30q-106 0 -181 -75t-75 -181zM810 554l172 -170h-128q0 -140 -101 -241t-241 -101q-100 0 -182 54l62 62q54 -30 120 -30q106 0 181 75t75 181h-128z" />
    <glyph glyph-name="uniE67F" unicode="&#xe67f;" 
d="M768 512q52 0 90 -38t38 -90v-66q0 -34 -25 -59t-59 -25t-58 24l-92 92l-92 -92q-24 -24 -59 -24t-59 24l-90 92l-92 -92q-24 -24 -58 -24t-59 25t-25 59v66q0 52 38 90t90 38h214v86h84v-86h214zM708 214q44 -44 104 -44q44 0 84 26v-196q0 -18 -12 -30t-30 -12h-684
q-18 0 -30 12t-12 30v196q38 -26 84 -26q60 0 104 44l46 46l46 -46q42 -42 104 -42t104 42l46 46zM512 640q-34 0 -60 26t-26 60q0 22 14 44l72 126l72 -126q14 -22 14 -44q0 -34 -25 -60t-61 -26z" />
    <glyph glyph-name="uniE680" unicode="&#xe680;" 
d="M282 436q96 -186 282 -282l94 94q20 20 44 10q72 -24 152 -24q18 0 30 -12t12 -30v-150q0 -18 -12 -30t-30 -12q-300 0 -513 213t-213 513q0 18 12 30t30 12h150q18 0 30 -12t12 -30q0 -80 24 -152q8 -26 -10 -44z" />
    <glyph glyph-name="uniE681" unicode="&#xe681;" 
d="M512 512q-104 0 -196 -30v-132q0 -30 -24 -40q-64 -30 -114 -78q-12 -12 -30 -12t-30 12l-106 106q-12 12 -12 30t12 30q210 200 500 200t500 -200q12 -12 12 -30t-12 -30l-106 -106q-12 -12 -30 -12t-30 12q-50 48 -114 78q-24 10 -24 38v132q-100 32 -196 32z" />
    <glyph glyph-name="uniE682" unicode="&#xe682;" 
d="M384 682h426v-426h-84v282l-496 -496l-60 60l496 496h-282v84z" />
    <glyph glyph-name="uniE683" unicode="&#xe683;" 
d="M320 554l192 192l192 -192h-150v-272l-256 -256l-60 60l232 230v238h-150zM726 26l-146 144l60 60l146 -144z" />
    <glyph glyph-name="uniE684" unicode="&#xe684;" 
d="M836 598l60 -60l-384 -384l-298 298v-196h-86v342h342v-86h-196l238 -238z" />
    <glyph glyph-name="uniE685" unicode="&#xe685;" 
d="M128 538l60 60l324 -324l238 238h-196v86h342v-342h-86v196l-298 -298z" />
    <glyph glyph-name="uniE686" unicode="&#xe686;" 
d="M854 666l-496 -496h282v-84h-426v426h84v-282l496 496z" />
    <glyph glyph-name="uniE687" unicode="&#xe687;" 
d="M426 726l-98 -98l226 -226v-360h-84v324l-202 202l-98 -98v256h256zM598 726h256v-256l-98 98l-124 -124l-60 60l124 124z" />
    <glyph glyph-name="uniE688" unicode="&#xe688;" 
d="M420 -32q8 14 86 150t120 206l156 -270q-118 -96 -270 -96q-42 0 -92 10zM104 256h414l-158 -270q-92 34 -159 105t-97 165zM198 672l216 -374h-320q-8 38 -8 86q0 166 112 288zM930 470q8 -38 8 -86q0 -166 -112 -288l-204 352l-12 22h320zM920 512h-414l158 270
q92 -34 159 -105t97 -165zM402 448l-4 -4l-156 270q118 96 270 96q42 0 92 -10z" />
    <glyph glyph-name="uniE689" unicode="&#xe689;" 
d="M512 170q88 0 151 63t63 151t-63 151t-151 63t-151 -63t-63 -151t63 -151t151 -63zM384 810h256l78 -84h136q34 0 59 -26t25 -60v-512q0 -34 -25 -60t-59 -26h-684q-34 0 -59 26t-25 60v512q0 34 25 60t59 26h136zM376 384q0 56 40 96t96 40t96 -40t40 -96t-40 -96
t-96 -40t-96 40t-40 96z" />
    <glyph glyph-name="uniE68A" unicode="&#xe68a;" 
d="M512 170l-54 118l-116 54l116 52l54 118l54 -118l116 -52l-116 -54zM512 128q88 0 151 63t63 151t-63 150t-151 62t-151 -62t-63 -150t63 -151t151 -63zM384 768h256l78 -86h136q34 0 59 -25t25 -59v-512q0 -34 -25 -60t-59 -26h-684q-34 0 -59 26t-25 60v512q0 34 25 59
t59 25h136z" />
    <glyph glyph-name="uniE68B" unicode="&#xe68b;" 
d="M298 810v-448q0 48 73 78t141 30t141 -30t73 -78v448h-428zM726 896q34 0 59 -26t25 -60v-596q0 -34 -25 -60t-59 -26h-300l128 -128l-128 -128v86h-212v84h212v86h-128q-34 0 -59 26t-25 60v596q0 34 25 60t59 26h428zM512 554q-34 0 -59 26t-25 60t25 60t59 26t60 -26
t26 -60t-26 -60t-60 -26zM598 42h212v-84h-212v84z" />
    <glyph glyph-name="uniE68C" unicode="&#xe68c;" 
d="M426 170l384 384l-60 62l-324 -324l-152 152l-60 -60zM512 810q176 0 301 -125t125 -301t-125 -301t-301 -125t-301 125t-125 301t125 301t301 125z" />
    <glyph glyph-name="uniE68D" unicode="&#xe68d;" 
d="M811 768h-598q-35 0 -60 -25t-25 -60v-598q0 -35 25 -60t60 -25h598q35 0 60 25t25 60v598q0 35 -25 60t-60 25zM384 171h-85v298h85v-298zM555 171h-86v426h86v-426zM725 171h-85v170h85v-170z" />
    <glyph glyph-name="uniE68F" unicode="&#xe68f;" 
d="M320 298h384q-24 -58 -76 -93t-116 -35t-116 35t-76 93zM512 86q102 0 181 60t105 154q2 0 6 -1t6 -1q34 0 60 26t26 60t-26 60t-60 26q-2 0 -6 -1t-6 -1q-26 94 -105 154t-181 60t-181 -60t-105 -154q-2 0 -6 1t-6 1q-34 0 -60 -26t-26 -60t26 -60t60 -26q2 0 6 1t6 1
q26 -94 105 -154t181 -60zM978 356q-8 -48 -40 -85t-78 -51q-44 -94 -139 -157t-209 -63t-208 63t-138 157q-46 14 -79 51t-41 85q-4 16 -4 28t4 28q8 48 41 85t79 51q34 76 92 124q108 96 254 96q116 0 209 -62t137 -158q46 -14 79 -51t41 -85q4 -16 4 -28t-4 -28zM352 448
q0 22 16 38t38 16t37 -16t15 -38t-15 -38t-37 -16t-38 16t-16 38zM566 448q0 22 15 38t37 16t38 -16t16 -38t-16 -38t-38 -16t-37 16t-15 38z" />
    <glyph glyph-name="uniE690" unicode="&#xe690;" 
d="M726 42q26 0 45 19t19 45t-19 45t-45 19t-45 -19t-19 -45t19 -45t45 -19zM342 42q26 0 45 19t19 45t-19 45t-45 19t-45 -19t-19 -45t19 -45t45 -19zM824 218q50 -46 50 -112q0 -62 -43 -105t-105 -43q-56 0 -98 37t-50 91h-90q-8 -54 -49 -91t-97 -37q-62 0 -106 43
t-44 105q0 88 78 132l-90 188h-94v86h148l40 -86h622q0 -114 -72 -208zM554 810q142 0 242 -100t100 -240h-342v340z" />
    <glyph glyph-name="uniE691" unicode="&#xe691;" 
d="M896 86v554h-384v-554h384zM896 726q34 0 60 -26t26 -60v-554q0 -34 -26 -60t-60 -26h-768q-34 0 -60 26t-26 60v554q0 34 26 60t60 26h768zM554 278h300v-64h-300v64zM554 490h300v-64h-300v64zM554 384h300v-64h-300v64z" />
    <glyph glyph-name="uniE692" unicode="&#xe692;" 
d="M854 470v256h-684v-256h684zM854 256v86h-684v-86h684zM854 810q36 0 60 -24t24 -60v-470q0 -36 -24 -61t-60 -25h-172v-212l-170 84l-170 -84v212h-172q-36 0 -60 25t-24 61v470q0 36 24 60t60 24h684z" />
    <glyph glyph-name="uniE693" unicode="&#xe693;" 
d="M854 298v256h-128v-84h-86v84h-256v-84h-86v84h-128v-256h684zM854 86v84h-684v-84h684zM384 726v-86h256v86h-256zM854 640q36 0 60 -25t24 -61v-468q0 -36 -24 -61t-60 -25h-684q-36 0 -60 25t-24 61v468q0 36 24 61t60 25h128v86q0 36 25 60t61 24h256q36 0 61 -24
t25 -60v-86h128z" />
    <glyph glyph-name="uniE694" unicode="&#xe694;" 
d="M704 512q28 0 46 18t18 46t-18 46t-46 18t-46 -18t-18 -46t18 -46t46 -18zM704 128q28 0 46 18t18 46t-18 46t-46 18t-46 -18t-18 -46t18 -46t46 -18zM512 320q28 0 46 18t18 46t-18 46t-46 18t-46 -18t-18 -46t18 -46t46 -18zM320 512q28 0 46 18t18 46t-18 46t-46 18
t-46 -18t-18 -46t18 -46t46 -18zM320 128q28 0 46 18t18 46t-18 46t-46 18t-46 -18t-18 -46t18 -46t46 -18zM810 768q34 0 60 -26t26 -60v-596q0 -34 -26 -60t-60 -26h-596q-34 0 -60 26t-26 60v596q0 34 26 60t60 26h596z" />
    <glyph glyph-name="uniE695" unicode="&#xe695;" 
d="M42 470q194 0 332 -138t138 -332h-86q0 160 -113 272t-271 112v86zM42 298q124 0 212 -87t88 -211h-86q0 88 -63 151t-151 63v84zM42 128q52 0 90 -38t38 -90h-128v128zM896 768q34 0 60 -26t26 -60v-596q0 -34 -26 -60t-60 -26h-298v86h298v596h-768v-128h-86v128
q0 34 26 60t60 26h768z" />
    <glyph glyph-name="uniE696" unicode="&#xe696;" 
d="M896 768q34 0 60 -26t26 -60v-596q0 -34 -26 -60t-60 -26h-298v86h298v596h-768v-128h-86v128q0 34 26 60t60 26h768zM42 470q194 0 332 -138t138 -332h-86q0 160 -113 272t-271 112v86zM810 598v-428h-240q-40 126 -135 222t-221 136v70h596zM42 298q124 0 212 -87
t88 -211h-86q0 88 -63 151t-151 63v84zM42 128q52 0 90 -38t38 -90h-128v128z" />
    <glyph glyph-name="uniE697" unicode="&#xe697;" 
d="M810 86v170h86v-170q0 -34 -26 -60t-60 -26h-170v86h170zM810 768q34 0 60 -26t26 -60v-170h-86v170h-170v86h170zM214 682v-170h-86v170q0 34 26 60t60 26h170v-86h-170zM214 256v-170h170v-86h-170q-34 0 -60 26t-26 60v170h86zM512 554q70 0 120 -50t50 -120t-50 -120
t-120 -50t-120 50t-50 120t50 120t120 50z" />
    <glyph glyph-name="uniE698" unicode="&#xe698;" 
d="M512 298q34 0 60 26t26 60t-26 60t-60 26t-60 -26t-26 -60t26 -60t60 -26zM512 554q70 0 120 -50t50 -120t-50 -120t-120 -50t-120 50t-50 120t50 120t120 50zM810 86v170h86v-170q0 -34 -26 -60t-60 -26h-170v86h170zM810 768q34 0 60 -26t26 -60v-170h-86v170h-170v86
h170zM214 682v-170h-86v170q0 34 26 60t60 26h170v-86h-170zM214 256v-170h170v-86h-170q-34 0 -60 26t-26 60v170h86z" />
    <glyph glyph-name="uniE699" unicode="&#xe699;" 
d="M512 726l426 -684h-852zM512 564l-272 -436h544z" />
    <glyph glyph-name="uniE69A" unicode="&#xe69a;" 
d="M768 554v86h-512v-86h512zM598 298v86h-342v-86h342zM256 512v-86h512v86h-512zM854 810q34 0 59 -25t25 -59v-512q0 -34 -25 -60t-59 -26h-598l-170 -170v768q0 34 25 59t59 25h684z" />
    <glyph glyph-name="uniE69B" unicode="&#xe69b;" 
d="M854 810q34 0 59 -25t25 -59v-512q0 -34 -25 -60t-59 -26h-598l-170 -170v768q0 34 25 59t59 25h684z" />
    <glyph glyph-name="uniE69C" unicode="&#xe69c;" 
d="M854 214v512h-684v-598l86 86h598zM854 810q34 0 59 -25t25 -59v-512q0 -34 -25 -60t-59 -26h-598l-170 -170v768q0 34 25 59t59 25h684z" />
    <glyph glyph-name="uniE69D" unicode="&#xe69d;" 
d="M384 206l452 452l60 -60l-512 -512l-238 238l60 60z" />
    <glyph glyph-name="uniE69E" unicode="&#xe69e;" 
d="M426 170l384 384l-60 62l-324 -324l-152 152l-60 -60zM810 768q36 0 61 -26t25 -60v-596q0 -34 -25 -60t-61 -26h-596q-36 0 -61 26t-25 60v596q0 34 25 60t61 26h596z" />
    <glyph glyph-name="uniE69F" unicode="&#xe69f;" 
d="M810 768q34 0 60 -26t26 -60v-596q0 -34 -26 -60t-60 -26h-596q-34 0 -60 26t-26 60v596q0 34 26 60t60 26h596zM810 682h-596v-596h596v596z" />
    <glyph glyph-name="uniE6A0" unicode="&#xe6a0;" 
d="M296 86l344 344l-82 82l-344 -344zM884 656q30 -30 0 -60l-134 -134l82 -82l-60 -60l-60 60l-382 -380h-202v202l380 382l-60 60l60 60l82 -82l134 134q12 12 30 12t30 -12z" />
    <glyph glyph-name="uniE6A1" unicode="&#xe6a1;" 
d="M768 554v86h-512v-86h512zM768 426v86h-512v-86h512zM768 298v86h-512v-86h512zM938 726v-768l-170 170h-598q-34 0 -59 26t-25 60v512q0 34 25 59t59 25h684q34 0 59 -25t25 -59z" />
    <glyph glyph-name="uniE6A2" unicode="&#xe6a2;" 
d="M810 768q34 0 60 -26t26 -60v-596q0 -34 -26 -60t-60 -26h-212v384l212 -256v554h-212v86h212zM426 128v256l-212 -256h212zM426 768v86h86v-940h-86v86h-212q-34 0 -60 26t-26 60v596q0 34 26 60t60 26h212z" />
    <glyph glyph-name="uniE6A3" unicode="&#xe6a3;" 
d="M640 342l-170 170l170 170v-128h298v-84h-298v-128zM384 298v128l170 -170l-170 -170v128h-298v84h298z" />
    <glyph glyph-name="uniE6A4" unicode="&#xe6a4;" 
d="M256 726v-342l106 64l108 -64v342h-214zM768 810q34 0 60 -25t26 -59v-684q0 -34 -26 -59t-60 -25h-512q-34 0 -60 25t-26 59v684q0 34 26 59t60 25h512z" />
    <glyph glyph-name="uniE6A5" unicode="&#xe6a5;" 
d="M810 622l-238 -238l238 -238l-60 -60l-238 238l-238 -238l-60 60l238 238l-238 238l60 60l238 -238l238 238z" />
    <glyph glyph-name="uniE6A6" unicode="&#xe6a6;" 
d="M298 598h598v-86h-598v86zM128 170v86h598v-86h-598zM214 342v84h596v-84h-596z" />
    <glyph glyph-name="uniE6A7" unicode="&#xe6a7;" 
d="M810 622l-238 -238l238 -238l-60 -60l-238 238l-238 -238l-60 60l238 238l-238 238l60 60l238 -238l238 238z" />
    <glyph glyph-name="uniE6A8" unicode="&#xe6a8;" 
d="M768 426v44q0 18 -12 30t-30 12h-128q-18 0 -31 -12t-13 -30v-172q0 -18 13 -30t31 -12h128q18 0 30 12t12 30v44h-64v-22h-86v128h86v-22h64zM470 426v44q0 18 -13 30t-31 12h-128q-18 0 -30 -12t-12 -30v-172q0 -18 12 -30t30 -12h128q18 0 31 12t13 30v44h-64v-22h-86
v128h86v-22h64zM810 726q34 0 60 -26t26 -60v-512q0 -34 -26 -60t-60 -26h-596q-36 0 -61 26t-25 60v512q0 34 25 60t61 26h596z" />
    <glyph glyph-name="uniE6A9" unicode="&#xe6a9;" horiz-adv-x="1025" 
d="M826 468q82 -6 140 -67t58 -145q0 -88 -63 -151t-151 -63h-554q-106 0 -181 75t-75 181q0 98 66 171t162 83q42 78 118 126t166 48q116 0 204 -73t110 -185z" />
    <glyph glyph-name="uniE6AA" unicode="&#xe6aa;" 
d="M704 214q44 0 75 31t31 75t-31 75t-75 31h-22q0 70 -50 121t-120 51q-60 0 -105 -37t-59 -93l-6 2q-52 0 -90 -38t-38 -90t38 -90t90 -38h362zM512 810q176 0 301 -125t125 -301t-125 -301t-301 -125t-301 125t-125 301t125 301t301 125z" />
    <glyph glyph-name="uniE6AB" unicode="&#xe6ab;" horiz-adv-x="1025" 
d="M426 170l282 282l-60 60l-222 -220l-88 88l-60 -60zM826 468q82 -6 140 -67t58 -145q0 -88 -63 -151t-151 -63h-554q-106 0 -181 75t-75 181q0 98 66 171t162 83q42 78 118 126t166 48q116 0 204 -73t110 -185z" />
    <glyph glyph-name="uniE6AC" unicode="&#xe6ac;" horiz-adv-x="1025" 
d="M726 342h-128v170h-172v-170h-128l214 -214zM826 468q82 -6 140 -67t58 -145q0 -88 -63 -151t-151 -63h-554q-106 0 -181 75t-75 181q0 98 66 171t162 83q42 78 118 126t166 48q116 0 204 -73t110 -185z" />
    <glyph glyph-name="uniE6AD" unicode="&#xe6ad;" horiz-adv-x="1025" 
d="M330 470h-74q-70 0 -120 -51t-50 -121t50 -120t120 -50h416zM128 672l54 54l714 -714l-54 -54l-86 84h-500q-106 0 -181 75t-75 181q0 104 72 178t174 78zM826 468q82 -6 140 -67t58 -145q0 -110 -90 -174l-62 62q66 36 66 112q0 52 -38 90t-90 38h-64v22q0 98 -68 166
t-166 68q-62 0 -108 -26l-64 62q78 50 172 50q116 0 204 -73t110 -185z" />
    <glyph glyph-name="uniE6AE" unicode="&#xe6ae;" horiz-adv-x="1025" 
d="M810 128q52 0 90 38t38 90t-38 90t-90 38h-64v22q0 98 -68 166t-166 68q-80 0 -142 -48t-84 -122h-30q-70 0 -120 -51t-50 -121t50 -120t120 -50h554zM826 468q82 -6 140 -67t58 -145q0 -88 -63 -151t-151 -63h-554q-106 0 -181 75t-75 181q0 98 66 171t162 83
q42 78 118 126t166 48q116 0 204 -73t110 -185z" />
    <glyph glyph-name="uniE6AF" unicode="&#xe6af;" horiz-adv-x="1025" 
d="M598 342h128l-214 212l-214 -212h128v-172h172v172zM826 468q82 -6 140 -67t58 -145q0 -88 -63 -151t-151 -63h-554q-106 0 -181 75t-75 181q0 98 66 171t162 83q42 78 118 126t166 48q116 0 204 -73t110 -185z" />
    <glyph glyph-name="uniE6B0" unicode="&#xe6b0;" 
d="M622 188l198 196l-198 196l60 60l256 -256l-256 -256zM402 188l-60 -60l-256 256l256 256l60 -60l-198 -196z" />
    <glyph glyph-name="uniE6B1" unicode="&#xe6b1;" 
d="M86 640h84v-598h598v-84h-598q-34 0 -59 25t-25 59v598zM470 384l-128 -170h512l-172 212l-126 -158zM938 214q0 -34 -25 -60t-59 -26h-512q-34 0 -60 26t-26 60v512q0 34 26 59t60 25h512q34 0 59 -25t25 -59v-512z" />
    <glyph glyph-name="uniE6B2" unicode="&#xe6b2;" 
d="M854 384v342h-214v-342l106 64zM854 810q34 0 59 -25t25 -59v-512q0 -34 -25 -60t-59 -26h-512q-34 0 -60 26t-26 60v512q0 34 26 59t60 25h512zM170 640v-598h598v-84h-598q-34 0 -59 25t-25 59v598h84z" />
    <glyph glyph-name="uniE6B3" unicode="&#xe6b3;" 
d="M746 384q26 0 45 18t19 46t-19 46t-45 18t-45 -18t-19 -46t19 -46t45 -18zM618 554q26 0 45 19t19 45t-19 45t-45 19t-45 -19t-19 -45t19 -45t45 -19zM406 554q26 0 45 19t19 45t-19 45t-45 19t-45 -19t-19 -45t19 -45t45 -19zM278 384q26 0 45 18t19 46t-19 46t-45 18
t-45 -18t-19 -46t19 -46t45 -18zM512 768q158 0 271 -100t113 -242q0 -88 -63 -150t-151 -62h-74q-28 0 -46 -19t-18 -45q0 -22 16 -42t16 -44q0 -28 -18 -46t-46 -18q-160 0 -272 112t-112 272t112 272t272 112z" />
    <glyph glyph-name="uniE6B5" unicode="&#xe6b5;" 
d="M810 214v340h-596v-340h596zM810 640q34 0 60 -26t26 -60v-340q0 -34 -26 -60t-60 -26h-596q-34 0 -60 26t-26 60v340q0 34 26 60t60 26h596z" />
    <glyph glyph-name="uniE6B6" unicode="&#xe6b6;" 
d="M810 86v596h-596v-596h596zM810 768q34 0 60 -26t26 -60v-596q0 -34 -26 -60t-60 -26h-596q-34 0 -60 26t-26 60v596q0 34 26 60t60 26h596z" />
    <glyph glyph-name="uniE6B7" unicode="&#xe6b7;" 
d="M170 640v-426h684v426h-684zM854 128h170v-86h-1024v86h170q-34 0 -59 26t-25 60v426q0 34 25 60t59 26h684q34 0 59 -26t25 -60v-426q0 -34 -25 -60t-59 -26z" />
    <glyph glyph-name="uniE6B8" unicode="&#xe6b8;" 
d="M554 534v84h-84v-84h84zM554 342v84h-84v-84h84zM554 150v84h-84v-84h84zM938 470q-34 0 -59 -26t-25 -60t25 -60t59 -26v-170q0 -34 -25 -60t-59 -26h-684q-34 0 -59 26t-25 60v170q36 0 60 25t24 61q0 34 -25 60t-59 26v170q0 36 25 61t59 25h684q34 0 59 -25t25 -61
v-170z" />
    <glyph glyph-name="uniE6B9" unicode="&#xe6b9;" 
d="M938 384v256h-340v-256h340zM598 128v42q0 58 -88 95t-168 37t-168 -37t-88 -95v-42h512zM342 640q-52 0 -90 -38t-38 -90t38 -90t90 -38t90 38t38 90t-38 90t-90 38zM938 768q34 0 60 -26t26 -60v-596q0 -34 -26 -60t-60 -26h-852q-34 0 -60 26t-26 60v596q0 34 26 60
t60 26h852zM896 554l-128 -84l-128 84v44l128 -86l128 86v-44z" />
    <glyph glyph-name="uniE6BA" unicode="&#xe6ba;" 
d="M762 298q-16 42 -16 86t16 86h70l64 84l-84 86q-88 -66 -118 -170q-12 -42 -12 -86t12 -86q30 -104 118 -170l84 86l-64 84h-70zM598 128v42q0 58 -88 95t-168 37t-168 -37t-88 -95v-42h512zM342 640q-52 0 -90 -38t-38 -90t38 -90t90 -38t90 38t38 90t-38 90t-90 38z
M938 768q34 0 60 -26t26 -60v-596q0 -34 -26 -60t-60 -26h-852q-34 0 -60 26t-26 60v596q0 34 26 60t60 26h852z" />
    <glyph glyph-name="uniE6BB" unicode="&#xe6bb;" 
d="M726 170v64q0 48 -73 78t-141 30t-141 -30t-73 -78v-64h428zM512 608q-40 0 -68 -28t-28 -68t28 -68t68 -28t68 28t28 68t-28 68t-68 28zM854 726q34 0 59 -26t25 -60v-512q0 -34 -25 -60t-59 -26h-684q-34 0 -59 26t-25 60v512q0 34 25 60t59 26h684zM170 -128v86h684
v-86h-684zM854 896v-86h-684v86h684z" />
    <glyph glyph-name="uniE6BC" unicode="&#xe6bc;" 
d="M810 0v598h-468v-598h468zM810 682q34 0 60 -25t26 -59v-598q0 -34 -26 -60t-60 -26h-468q-34 0 -60 26t-26 60v598q0 34 26 59t60 25h468zM682 854v-86h-512v-598h-84v598q0 34 25 60t59 26h512z" />
    <glyph glyph-name="uniE6BD" unicode="&#xe6bd;" 
d="M810 768h128v-42l-298 -300l-86 86zM512 362q22 0 22 22t-22 22t-22 -22t22 -22zM256 42q34 0 60 25t26 61t-26 61t-60 25t-60 -25t-26 -61t26 -61t60 -25zM256 554q34 0 60 25t26 61t-26 61t-60 25t-60 -25t-26 -61t26 -61t60 -25zM412 570l526 -528v-42h-128l-298 298
l-100 -100q14 -30 14 -70q0 -70 -50 -120t-120 -50t-120 50t-50 120t50 120t120 50q40 0 70 -14l100 100l-100 100q-30 -14 -70 -14q-70 0 -120 50t-50 120t50 120t120 50t120 -50t50 -120q0 -40 -14 -70z" />
    <glyph glyph-name="uniE6BE" unicode="&#xe6be;" 
d="M810 42v684h-84v-128h-428v128h-84v-684h596zM512 810q-18 0 -30 -12t-12 -30t12 -30t30 -12t30 12t12 30t-12 30t-30 12zM810 810q34 0 60 -25t26 -59v-684q0 -34 -26 -59t-60 -25h-596q-34 0 -60 25t-26 59v684q0 34 26 59t60 25h178q14 38 46 62t74 24t74 -24t46 -62
h178z" />
    <glyph glyph-name="uniE6BF" unicode="&#xe6bf;" 
d="M512 42q140 0 241 101t101 241t-101 241t-241 101t-241 -101t-101 -241t101 -241t241 -101zM512 810q176 0 301 -125t125 -301t-125 -301t-301 -125t-301 125t-125 301t125 301t301 125zM554 598v-172h172v-84h-172v-172h-84v172h-172v84h172v172h84z" />
    <glyph glyph-name="uniE6C0" unicode="&#xe6c0;" horiz-adv-x="1025" 
d="M640 86q124 0 211 87t87 211t-87 211t-211 87t-211 -87t-87 -211t87 -211t211 -87zM640 768q160 0 272 -112t112 -272t-112 -272t-272 -112t-272 112t-112 272t112 272t272 112zM86 384q0 -88 46 -161t124 -109v-92q-112 40 -184 140t-72 222t72 222t184 140v-92
q-78 -36 -124 -109t-46 -161zM682 554v-128h128v-84h-128v-128h-84v128h-128v84h128v128h84z" />
    <glyph glyph-name="uniE6C1" unicode="&#xe6c1;" 
d="M512 42q140 0 241 101t101 241t-101 241t-241 101t-241 -101t-101 -241t101 -241t241 -101zM512 810q176 0 301 -125t125 -301t-125 -301t-301 -125t-301 125t-125 301t125 301t301 125zM506 506q-80 0 -80 -116v-12q0 -116 80 -116q30 0 50 17t20 43h76q0 -50 -44 -88
q-42 -36 -102 -36q-80 0 -122 48t-42 132v12q0 82 40 128q48 54 124 54q66 0 104 -38q42 -42 42 -98h-76q0 14 -6 26q-10 20 -14 24q-20 20 -50 20z" />
    <glyph glyph-name="uniE6C2" unicode="&#xe6c2;" 
d="M884 596l-78 -78l-160 160l78 78q12 12 30 12t30 -12l100 -100q12 -12 12 -30t-12 -30zM128 160l472 472l160 -160l-472 -472h-160v160z" />
    <glyph glyph-name="uniE6C3" unicode="&#xe6c3;" 
d="M810 298v86h-128v128h-84v-128h-128v-86h128v-128h84v128h128zM854 640q36 0 60 -25t24 -61v-426q0 -36 -24 -61t-60 -25h-684q-36 0 -60 25t-24 61v512q0 36 24 61t60 25h256l86 -86h342z" />
    <glyph glyph-name="uniE6C4" unicode="&#xe6c4;" 
d="M854 554v86h-684v-86h684zM854 128v256h-684v-256h684zM854 726q36 0 60 -25t24 -61v-512q0 -36 -24 -61t-60 -25h-684q-36 0 -60 25t-24 61v512q0 36 24 61t60 25h684z" />
    <glyph glyph-name="uniE6C5" unicode="&#xe6c5;" 
d="M298 170h684v-84h-172v-172h-84v172h-428q-34 0 -59 25t-25 59v428h-172v84h172v172h84v-684zM726 256v342h-342v84h342q34 0 59 -25t25 -59v-342h-84z" />
    <glyph glyph-name="uniE6C6" unicode="&#xe6c6;" 
d="M810 128v512h-596v-512h596zM810 726q34 0 60 -26t26 -60v-512q0 -34 -26 -60t-60 -26h-596q-34 0 -60 26t-26 60v512q0 34 26 60t60 26h596z" />
    <glyph glyph-name="uniE6C7" unicode="&#xe6c7;" 
d="M810 170v428h-596v-428h596zM810 682q34 0 60 -25t26 -59v-428q0 -34 -26 -59t-60 -25h-596q-34 0 -60 25t-26 59v428q0 34 26 59t60 25h596z" />
    <glyph glyph-name="uniE6C8" unicode="&#xe6c8;" 
d="M726 86v84h84v-170q0 -34 -25 -60t-59 -26h-428q-34 0 -59 26t-25 60v170h84v-84h428zM426 248l-60 -60l-196 196l196 196l60 -60l-134 -136zM658 188l-60 60l134 136l-134 136l60 60l196 -196zM298 682v-84h-84v170q0 34 25 60t59 26l428 -2q34 0 59 -25t25 -59v-170
h-84v84h-428z" />
    <glyph glyph-name="uniE6C9" unicode="&#xe6c9;" 
d="M726 214h170v-214h-214v130l-170 180l-170 -180v-130h-214v214h170l172 170v136q-38 14 -62 46t-24 74q0 52 38 90t90 38t90 -38t38 -90q0 -42 -24 -74t-62 -46v-136z" />
    <glyph glyph-name="uniE6CA" unicode="&#xe6ca;" horiz-adv-x="1025" 
d="M938 170v300h-170v-300h170zM982 554q18 0 30 -12t12 -30v-426q0 -18 -12 -31t-30 -13h-256q-18 0 -31 13t-13 31v426q0 18 13 30t31 12h256zM170 640v-470h428v-128h-598v128h86v470q0 34 25 60t59 26h768v-86h-768z" />
    <glyph glyph-name="uniE6CB" unicode="&#xe6cb;" 
d="M896 128v342h-170v-342h170zM938 554q16 0 30 -13t14 -29v-426q0 -16 -14 -30t-30 -14h-256q-16 0 -29 14t-13 30v426q0 16 13 29t29 13h256zM470 150q26 0 45 19t19 45t-19 45t-45 19t-45 -19t-19 -45t19 -45t45 -19zM554 384v-76q44 -40 44 -94q0 -56 -44 -96v-76h-170
v76q-42 38 -42 96q0 56 42 94v76h170zM128 640v-512h170v-86h-170q-34 0 -60 26t-26 60v512q0 34 26 60t60 26h768v-86h-768z" />
    <glyph glyph-name="uniE6CC" unicode="&#xe6cc;" 
d="M810 768q34 0 60 -26t26 -60v-170h-86v170h-170v86h170zM810 86v170h86v-170q0 -34 -26 -60t-60 -26h-170v86h170zM214 256v-170h170v-86h-170q-34 0 -60 26t-26 60v170h86zM128 682q0 34 26 60t60 26h170v-86h-170v-170h-86v170z" />
    <glyph glyph-name="uniE6CD" unicode="&#xe6cd;" 
d="M810 170v428h-596v-428h596zM810 682q34 0 60 -25t26 -59v-428q0 -34 -26 -59t-60 -25h-596q-34 0 -60 25t-26 59v428q0 34 26 59t60 25h596z" />
    <glyph glyph-name="uniE6CE" unicode="&#xe6ce;" 
d="M596 372l150 -202h-468l116 152l84 -102zM810 86v596h-596v-596h596zM810 768q34 0 60 -26t26 -60v-596q0 -34 -26 -60t-60 -26h-596q-34 0 -60 26t-26 60v596q0 34 26 60t60 26h596z" />
    <glyph glyph-name="uniE6CF" unicode="&#xe6cf;" 
d="M726 86v596h-428v-596h428zM726 768q34 0 59 -26t25 -60v-596q0 -34 -25 -60t-59 -26h-428q-34 0 -59 26t-25 60v596q0 34 25 60t59 26h428z" />
    <glyph glyph-name="uniE6D0" unicode="&#xe6d0;" horiz-adv-x="1025" 
d="M342 214h512v-86h-86v-86h-86v86h-340q-36 0 -61 26t-25 60v340h-86v86h86v86h86v-512zM682 298v256h-256v86h256q34 0 60 -25t26 -61v-256h-86zM514 896q200 0 347 -136t163 -334h-64q-12 120 -80 216t-174 146l-58 -56l-162 162q6 0 14 1t14 1zM318 -20l58 56l162 -162
q-6 0 -14 -1t-14 -1q-200 0 -347 136t-163 334h64q12 -120 80 -216t174 -146z" />
    <glyph glyph-name="uniE6D1" unicode="&#xe6d1;" 
d="M768 128v512h-512v-512h512zM768 726q34 0 60 -26t26 -60v-512q0 -34 -26 -60t-60 -26h-512q-34 0 -60 26t-26 60v512q0 34 26 60t60 26h512z" />
    <glyph glyph-name="uniE6D2" unicode="&#xe6d2;" 
d="M554 768h342v-256h-342v256zM554 0v426h342v-426h-342zM128 0v256h342v-256h-342zM128 342v426h342v-426h-342z" />
    <glyph glyph-name="uniE6D3" unicode="&#xe6d3;" 
d="M512 86q144 0 232 112l112 -66q-128 -174 -344 -174q-176 0 -301 125t-125 301q0 166 111 287t273 137v-128q-108 -16 -182 -100t-74 -196q0 -124 87 -211t211 -87zM554 808q162 -16 273 -137t111 -287q0 -96 -36 -174l-112 66q20 56 20 108q0 112 -74 196t-182 100v128z
" />
    <glyph glyph-name="uniE6D4" unicode="&#xe6d4;" 
d="M810 42v470h-596v-470h596zM810 726q34 0 60 -26t26 -60v-598q0 -34 -26 -59t-60 -25h-596q-36 0 -61 25t-25 59v598q0 34 25 60t61 26h42v84h86v-84h340v84h86v-84h42zM726 426v-84h-86v84h86zM554 426v-84h-84v84h84zM384 426v-84h-86v84h86z" />
    <glyph glyph-name="uniE6D5" unicode="&#xe6d5;" 
d="M86 662h852v-86h-852v86zM86 448h852v-86h-852v86zM86 234h852v-84h-852v84z" />
    <glyph glyph-name="uniE6D6" unicode="&#xe6d6;" 
d="M810 726v-86h-596v86h148l44 42h212l44 -42h148zM256 86v512h512v-512q0 -34 -26 -60t-60 -26h-340q-34 0 -60 26t-26 60z" />
    <glyph glyph-name="uniE6D7" unicode="&#xe6d7;" 
d="M554 512h236l-236 234v-234zM682 298v86h-340v-86h340zM682 128v86h-340v-86h340zM598 810l256 -256v-512q0 -34 -26 -59t-60 -25h-512q-34 0 -60 25t-26 59l2 684q0 34 25 59t59 25h342z" />
    <glyph glyph-name="uniE6D8" unicode="&#xe6d8;" 
d="M896 298v428h-768v-428h768zM896 810q34 0 60 -25t26 -59v-512q0 -34 -26 -60t-60 -26h-298l84 -128v-42h-340v42l84 128h-298q-34 0 -60 26t-26 60v512q0 34 26 59t60 25h768z" />
    <glyph glyph-name="uniE6D9" unicode="&#xe6d9;" 
d="M896 214v512h-768v-512h768zM896 810q34 0 60 -25t26 -59v-512q0 -34 -26 -60t-60 -26h-298v-86h84v-84h-340v84h84v86h-298q-34 0 -60 26t-26 60v512q0 34 26 59t60 25h768z" />
    <glyph glyph-name="uniE6DA" unicode="&#xe6da;" 
d="M272 640l240 -426l240 426h-480zM128 726h768l-384 -684z" />
    <glyph glyph-name="uniE6DB" unicode="&#xe6db;" 
d="M512 426h170v-256h-170v256zM256 598h214v-214h-214v214zM512 598h170v-128h-170v128zM256 342h214v-172h-214v172zM768 86v596h-598v-596h598zM938 512h-84v-86h84v-84h-84v-86h84v-86h-84v-84q0 -34 -26 -60t-60 -26h-598q-34 0 -59 26t-25 60v596q0 34 25 60t59 26
h598q34 0 60 -26t26 -60v-84h84v-86z" />
    <glyph glyph-name="uniE6DC" unicode="&#xe6dc;" 
d="M682 256v426h-340v-426h340zM682 852q34 0 60 -25t26 -59v-598q0 -34 -26 -59t-60 -25h-340q-34 0 -60 25t-26 59v598q0 34 26 60t60 26zM342 -86v86h340v-86h-340z" />
    <glyph glyph-name="uniE6DD" unicode="&#xe6dd;" 
d="M768 256v-86h-86v86h86zM768 426v-84h-86v84h86zM854 86v426h-342v-86h86v-84h-86v-86h86v-86h-86v-84h342zM426 598v84h-84v-84h84zM426 426v86h-84v-86h84zM426 256v86h-84v-86h84zM426 86v84h-84v-84h84zM256 598v84h-86v-84h86zM256 426v86h-86v-86h86zM256 256v86
h-86v-86h86zM256 86v84h-86v-84h86zM512 598h426v-598h-852v768h426v-170z" />
    <glyph glyph-name="uniE6DE" unicode="&#xe6de;" 
d="M384 204l452 454l60 -60l-512 -512l-238 238l58 60z" />
    <glyph glyph-name="uniE6DF" unicode="&#xe6df;" 
d="M18 324l60 60l238 -238l-60 -60zM948 658l62 -60l-512 -512l-240 238l62 60l178 -178zM768 598l-270 -272l-60 60l270 272z" />
    <glyph glyph-name="uniE6E0" unicode="&#xe6e0;" 
d="M854 234q18 0 30 -12t12 -30v-150q0 -18 -12 -30t-30 -12q-300 0 -513 213t-213 513q0 18 12 30t30 12h150q18 0 30 -12t12 -30q0 -80 24 -152q8 -26 -10 -44l-94 -94q94 -184 282 -282l94 94q18 18 44 10q72 -24 152 -24zM854 682v44h-44v-44h44zM768 768h128v-128h-86
v-86h-42v214zM640 682v-128h-128v44h86v42h-86v128h128v-42h-86v-44h86zM726 768v-214h-44v214h44z" />
    <glyph glyph-name="uniE6E1" unicode="&#xe6e1;" 
d="M512 854q34 0 60 -26t26 -60t-26 -60t-60 -26t-60 26t-26 60t26 60t60 26zM512 598q34 0 60 -26t26 -60t-26 -60t-60 -26t-60 26t-26 60t26 60t60 26zM768 598q34 0 60 -26t26 -60t-26 -60t-60 -26t-60 26t-26 60t26 60t60 26zM768 342q34 0 60 -26t26 -60t-26 -60
t-60 -26t-60 26t-26 60t26 60t60 26zM512 342q34 0 60 -26t26 -60t-26 -60t-60 -26t-60 26t-26 60t26 60t60 26zM768 682q-34 0 -60 26t-26 60t26 60t60 26t60 -26t26 -60t-26 -60t-60 -26zM256 342q34 0 60 -26t26 -60t-26 -60t-60 -26t-60 26t-26 60t26 60t60 26zM256 598
q34 0 60 -26t26 -60t-26 -60t-60 -26t-60 26t-26 60t26 60t60 26zM256 854q34 0 60 -26t26 -60t-26 -60t-60 -26t-60 26t-26 60t26 60t60 26zM512 86q34 0 60 -26t26 -60t-26 -60t-60 -26t-60 26t-26 60t26 60t60 26z" />
    <glyph glyph-name="uniE6E2" unicode="&#xe6e2;" 
d="M598 278l148 148l-148 150v-106h-214q-18 0 -30 -13t-12 -31v-170h84v128h172v-106zM926 414q28 -32 0 -60l-384 -384q-12 -12 -30 -12t-30 12l-384 384q-12 12 -12 30t12 30l384 384q12 12 30 12t30 -12z" />
    <glyph glyph-name="uniE6E3" unicode="&#xe6e3;" horiz-adv-x="1025" 
d="M810 22q62 0 106 43t44 105t-44 106t-106 44t-105 -44t-43 -106t43 -105t105 -43zM810 384q90 0 152 -62t62 -152t-62 -151t-152 -61t-151 61t-61 151t61 152t151 62zM460 448l94 -98v-264h-84v212l-138 120q-24 16 -24 60q0 36 24 60l120 120q16 24 60 24q38 0 68 -24
l82 -82q64 -64 152 -64v-86q-126 0 -216 90l-34 34zM214 22q62 0 105 43t43 105t-43 106t-105 44t-106 -44t-44 -106t44 -105t106 -43zM214 384q90 0 151 -62t61 -152t-61 -151t-151 -61t-152 61t-62 151t62 152t152 62zM662 662q-34 0 -60 25t-26 59t26 60t60 26t59 -26
t25 -60t-25 -59t-59 -25z" />
    <glyph glyph-name="uniE6E4" unicode="&#xe6e4;" 
d="M768 426v214h-512v-214h512zM704 170q28 0 46 19t18 45t-18 45t-46 19t-46 -19t-18 -45t18 -45t46 -19zM320 170q28 0 46 19t18 45t-18 45t-46 19t-46 -19t-18 -45t18 -45t46 -19zM170 214v426q0 102 88 136t254 34t254 -34t88 -136v-426q0 -56 -44 -96v-76
q0 -18 -12 -30t-30 -12h-42q-18 0 -31 12t-13 30v44h-340v-44q0 -18 -13 -30t-31 -12h-42q-18 0 -30 12t-12 30v76q-44 40 -44 96z" />
    <glyph glyph-name="uniE6E5" unicode="&#xe6e5;" 
d="M214 426h596l-64 192h-468zM746 214q26 0 45 19t19 45t-19 45t-45 19t-45 -19t-19 -45t19 -45t45 -19zM278 214q26 0 45 19t19 45t-19 45t-45 19t-45 -19t-19 -45t19 -45t45 -19zM808 640l88 -256v-342q0 -18 -12 -30t-30 -12h-44q-18 0 -30 12t-12 30v44h-512v-44
q0 -18 -12 -30t-30 -12h-44q-18 0 -30 12t-12 30v342l88 256q12 42 62 42h468q50 0 62 -42z" />
    <glyph glyph-name="uniE6E6" unicode="&#xe6e6;" 
d="M256 640v-170l256 84l256 -84v170h-512zM168 86l-80 284q-14 40 28 54l54 18v198q0 34 26 60t60 26h128v128h256v-128h128q34 0 60 -26t26 -60v-198l54 -18q42 -14 28 -54l-80 -284h-2q-98 0 -172 84q-74 -84 -170 -84t-170 84q-74 -84 -172 -84h-2zM854 0h84v-86h-84
q-90 0 -172 42q-170 -88 -340 0q-82 -42 -172 -42h-84v86h84q92 0 172 56q78 -54 170 -54t170 54q80 -56 172 -56z" />
    <glyph glyph-name="uniE6E7" unicode="&#xe6e7;" 
d="M768 470v212h-512v-212h512zM512 170q34 0 60 26t26 60t-26 60t-60 26t-60 -26t-26 -60t26 -60t60 -26zM170 234v448q0 102 88 137t254 35t254 -35t88 -137v-448q0 -62 -44 -105t-106 -43l64 -64v-22h-512v22l64 64q-62 0 -106 43t-44 105z" />
    <glyph glyph-name="uniE6E8" unicode="&#xe6e8;" 
d="M422 70l-298 58l16 86l210 -42l68 346l-78 -30v-146h-84v200l222 94q6 0 17 2t17 2q42 0 72 -42l42 -68q58 -102 184 -102v-86q-142 0 -234 106l-26 -128l90 -84v-320h-86v256l-90 84zM576 662q-34 0 -60 26t-26 60t26 59t60 25t59 -25t25 -59t-25 -60t-59 -26z" />
    <glyph glyph-name="uniE6E9" unicode="&#xe6e9;" horiz-adv-x="1324" 
d="M797 838q-19 -3 -46 -17q-31 -16 -63 -49l-19 -19l-8 11q-44 57 -116 72q-7 2 -28.5 2t-28.5 -2q-48 -10 -85 -48q-9 -10 -19.5 -24.5t-10.5 -17.5q0 -2 -3 -7q-8 -18 -9 -49q-1 -26 3 -42q4 -14 5 -18l11 -20q6 -14 11 -23q4 -8 104 -107q100 -101 100 -102t-97 -98
q-99 -99 -102 -105q-19 -28 -30 -61q-4 -11 -5 -38t2 -37q3 -8 3 -11q0 -2 7.5 -17.5t13.5 -23.5q14 -21 38 -39q26 -19 65 -28q8 -2 26.5 -2t26.5 2q37 8 64 24q11 7 29.5 23.5t27.5 28.5l5 7l19 -20q20 -20 27 -24q9 -7 14 -11q21 -15 50 -25q15 -5 35 -6q36 -2 72 16
q25 12 39 23.5t26 29.5q19 30 23 46q1 6 2 8q2 2 4 18q3 32 -4 54q-3 9 -3 10q0 3 -9 22t-14 26q-4 7 -104 107q-11 11 -22.5 23t-21.5 22l-18 18l-16 16l-11 11l-8 8l-3 3q-1 1 100 102q101 100 106 110q21 34 21 44q0 1 3 9q4 12 4.5 40t-3.5 32q-2 2 -3 9q-1 5 -10 23
t-12 22t-11 14q-21 28 -67 46q-11 4 -15 6q-7 3 -28.5 4t-33.5 -1zM533 733q9 -2 14 -6q5 -2 26.5 -23.5t21.5 -23.5q-1 -1 -28 -30l-29 -29l37 -37l37 -37l29 30l29 30l30 -30l29 -29l37 37l37 36l-27 28q-28 28 -29 28q-1 1 -1 3t21.5 23t26.5 24q4 3 16 6t16 2
q18 -4 25 -9q17 -10 22.5 -31t-3.5 -39q-5 -8 -101 -104q-97 -97 -98 -97q-3 -1 -164 163q-26 27 -32.5 35t-9.5 15q-3 10 -1 19q8 30 30 40q14 8 20.5 9t18.5 -3zM769 205l12 -12q71 -70 82.5 -84.5t11.5 -30.5v-2q0 -36 -30 -50q-9 -4 -23.5 -4t-22.5 4q-5 3 -29 25
t-24 24q0 1 27 30q28 28 27 30q0 2 -35 37.5t-36 35.5t-29 -29l-29 -29l-29 29q-29 29 -29.5 29t-37.5 -36l-37 -36l22 -23q35 -35 35 -37.5t-23 -24t-28 -24.5q-18 -9 -38 -4q-29 8 -40 41q-3 11 -1 20t4 13t34 37q7 6 42.5 42.5t56.5 57.5q65 67 67.5 67t99.5 -96z
M201 535q-27 -1 -47 -10q-8 -4 -9 -4t-13 -8q-17 -11 -33.5 -31t-25.5 -39q-5 -12 -6 -14q-6 -11 -6 -48q0 -35 7 -56t26 -46q10 -13 16 -18t23 -17q26 -17 46 -20q9 -2 11 -3t27 -1q38 0 69 15q30 15 43 29q4 5 20 20l20 19l29 -28q29 -28 30 -28t36.5 35.5t35.5 36.5
q0 2 -28 30q-29 27 -29 28q0 2 29 30q28 28 28 29.5t-37 37.5l-37 37l-17 -18q-24 -25 -28 -29q-10 -11 -12 -11q-2 1 -24 22q-23 23 -33 30q-2 1 -4.5 3t-4.5 3.5t-3 1.5q-1 1 -14 9q-32 16 -85 13zM234 430q9 -3 13 -6q4 -2 25.5 -23.5t21.5 -23.5q0 -1 -6 -6
q-8 -7 -22 -21q-17 -16 -24.5 -20t-24.5 -4t-23 3q-17 9 -26 26q-5 10 -4 24q2 32 25 45q25 14 45 6zM1101 535q-57 -4 -120 -73q-8 -9 -9 -9q-2 0 -10 9q-2 1 -12 12t-16 17l-19 20l-37 -37q-37 -36 -37 -38q1 -1 28.5 -29t27.5 -30q0 -1 -28 -29q-28 -27 -28 -28.5
t36 -37.5t37 -35l29 28l28 28l24 -22q34 -34 62 -47q29 -14 66 -14q30 0 49.5 6.5t48.5 26.5q17 12 34 36q17 26 21 46q2 11 3 20q6 28 -2 60q-11 47 -51 84q-23 22 -55 32q-26 8 -70 4zM1137 430q24 -7 34 -28q5 -8 5 -25t-5 -26q-5 -8 -16 -16l-10 -8l-20 -1q-20 0 -27 5
q-8 4 -23 19t-21 20q-7 6 -7 7t23 25t34 27q18 6 33 1z" />
    <glyph glyph-name="uniE6EA" unicode="&#xe6ea;" 
d="M768 426v214h-214v-214h214zM704 170q28 0 46 19t18 45t-18 45t-46 19t-46 -19t-18 -45t18 -45t46 -19zM470 426v214h-214v-214h214zM320 170q28 0 46 19t18 45t-18 45t-46 19t-46 -19t-18 -45t18 -45t46 -19zM512 810q166 0 254 -34t88 -136v-406q0 -62 -44 -105
t-106 -43l64 -64v-22h-512v22l64 64q-62 0 -106 43t-44 105v406q0 102 88 136t254 34z" />
    <glyph glyph-name="uniE6EB" unicode="&#xe6eb;" 
d="M418 516l-120 -602h90l78 342l88 -86v-256h86v320l-90 86l26 128q92 -106 234 -106v84q-124 0 -182 104l-44 68q-30 42 -72 42q-6 0 -17 -2t-17 -2l-222 -94v-200h86v144zM576 662q-34 0 -60 25t-26 59t26 60t60 26t60 -26t26 -60t-26 -59t-60 -25z" />
    <glyph glyph-name="uniE6EC" unicode="&#xe6ec;" 
d="M426 298q34 0 60 26t26 60t-26 60t-60 26t-59 -26t-25 -60t25 -60t59 -26zM426 726q142 0 242 -101t100 -241t-100 -241t-242 -101q-140 0 -240 100t-100 242t100 242t240 100zM854 598h84v-214h-84v214zM854 214v84h84v-84h-84z" />
    <glyph glyph-name="uniE6ED" unicode="&#xe6ed;" 
d="M298 512q34 0 60 26t26 60t-26 59t-60 25t-59 -25t-25 -59t25 -60t59 -26zM854 768q18 0 30 -12t12 -30v-256q0 -18 -12 -31t-30 -13h-684q-18 0 -30 13t-12 31v256q0 18 12 30t30 12h684zM298 86q34 0 60 25t26 59t-26 60t-60 26t-59 -26t-25 -60t25 -59t59 -25z
M854 342q18 0 30 -13t12 -31v-256q0 -18 -12 -30t-30 -12h-684q-18 0 -30 12t-12 30v256q0 18 12 31t30 13h684z" />
    <glyph glyph-name="uniE6EE" unicode="&#xe6ee;" 
d="M782 174q72 90 72 210q0 140 -101 241t-241 101q-120 0 -210 -72zM512 42q120 0 210 72l-480 480q-72 -90 -72 -210q0 -140 101 -241t241 -101zM512 810q176 0 301 -125t125 -301t-125 -301t-301 -125t-301 125t-125 301t125 301t301 125z" />
    <glyph glyph-name="uniE6EF" unicode="&#xe6ef;" 
d="M512 42q140 0 241 101t101 241q0 114 -74 210l-478 -478q96 -74 210 -74zM170 384q0 -114 74 -210l478 478q-96 74 -210 74q-140 0 -241 -101t-101 -241zM512 810q176 0 301 -125t125 -301t-125 -301t-301 -125t-301 125t-125 301t125 301t301 125z" />
    <glyph glyph-name="uniE6F0" unicode="&#xe6f0;" 
d="M810 86v468h-596v-468h596zM810 768q34 0 60 -26t26 -60v-596q0 -34 -26 -60t-60 -26h-596q-36 0 -61 26t-25 60v596q0 34 25 60t61 26h42v86h86v-86h340v86h86v-86h42zM706 424l-254 -254l-136 136l46 46l90 -90l208 208z" />
    <glyph glyph-name="uniE6F1" unicode="&#xe6f1;" 
d="M810 86v468h-596v-468h596zM810 768q34 0 60 -26t26 -60v-596q0 -34 -26 -60t-60 -26h-596q-36 0 -61 26t-25 60v596q0 34 25 60t61 26h42v86h86v-86h340v86h86v-86h42zM398 170l-46 46l104 104l-104 104l46 46l104 -104l104 104l44 -46l-104 -104l104 -104l-44 -46
l-104 104z" />
    <glyph glyph-name="uniE6F2" unicode="&#xe6f2;" 
d="M598 298v-84h-300v84h300zM810 86v468h-596v-468h596zM810 768q34 0 60 -26t26 -60v-596q0 -34 -26 -60t-60 -26h-596q-36 0 -61 26t-25 60v596q0 34 25 60t61 26h42v86h86v-86h340v86h86v-86h42zM726 470v-86h-428v86h428z" />
    <glyph glyph-name="uniE6F3" unicode="&#xe6f3;" 
d="M726 342h-428v340q0 34 26 60t60 26h256q34 0 60 -26t26 -60v-340zM86 470h128v-128h-128v128zM810 470h128v-128h-128v128zM170 0v256h684v-256h-128v128h-428v-128h-128z" />
    <glyph glyph-name="uniE6F4" unicode="&#xe6f4;" 
d="M810 768q34 0 60 -26t26 -60v-596q0 -34 -26 -60t-60 -26h-596q-36 0 -61 26t-25 60v170h86v-170h596v596h-596v-170h-86v170q0 34 25 60t61 26h596zM430 230l110 112h-412v84h412l-110 112l60 60l214 -214l-214 -214z" />
    <glyph glyph-name="uniE6F5" unicode="&#xe6f5;" 
d="M554 88q96 14 169 86t87 168h128q-16 -160 -120 -265t-264 -119v130zM810 426q-14 96 -87 168t-169 86v130q160 -16 264 -120t120 -264h-128zM470 680q-100 -16 -178 -102t-78 -194t78 -194t178 -102v-130q-162 16 -273 138t-111 288t111 288t273 138v-130z" />
    <glyph glyph-name="uniE6F6" unicode="&#xe6f6;" 
d="M554 262q54 16 80 80h304q-16 -154 -121 -262t-263 -122v304zM634 426q-24 64 -80 80v304q158 -14 263 -122t121 -262h-304zM470 506q-34 -14 -60 -48t-26 -74t26 -74t60 -48v-304q-162 16 -273 138t-111 288t111 288t273 138v-304z" />
    <glyph glyph-name="uniE6F7" unicode="&#xe6f7;" 
d="M512 342l352 220l-352 206l-352 -206zM938 554v-426q0 -34 -25 -60t-59 -26h-684q-34 0 -59 26t-25 60v426q0 50 40 74l386 226l386 -226q40 -24 40 -74z" />
    <glyph glyph-name="uniE6F8" unicode="&#xe6f8;" 
d="M170 256v86h684v-86h-684zM854 512v-86h-684v86h684z" />
    <glyph glyph-name="uniE6FA" unicode="&#xe6fa;" 
d="M298 384v-86h-84v86h84zM298 554v-84h-84v84h84zM810 384v-86h-468v86h468zM810 554v-84h-468v84h468zM896 170v512h-768v-512h768zM896 768q34 0 60 -26t26 -60l-2 -512q0 -34 -25 -59t-59 -25h-214v-86h-340v86h-214q-34 0 -60 25t-26 59v512q0 34 26 60t60 26h768z
" />
    <glyph glyph-name="uniE6FB" unicode="&#xe6fb;" 
d="M884 596l-78 -78l-160 160l78 78q12 12 30 12t30 -12l100 -100q12 -12 12 -30t-12 -30zM128 160l472 472l160 -160l-472 -472h-160v160z" />
    <glyph glyph-name="uniE6FC" unicode="&#xe6fc;" 
d="M636 574q12 10 0 22l-40 40q-12 12 -22 0l-30 -30l62 -62zM446 384l142 142l-62 62l-142 -142v-62h62zM512 810q124 0 211 -87t87 -211q0 -62 -31 -142t-75 -150t-87 -131t-73 -97l-32 -34q-12 14 -32 37t-72 92t-91 134t-71 147t-32 144q0 124 87 211t211 87z" />
    <glyph glyph-name="uniE6FD" unicode="&#xe6fd;" 
d="M512 682l284 -426h-568zM214 170h596v-84h-596v84z" />
    <glyph glyph-name="uniE6FE" unicode="&#xe6fe;" 
d="M854 554v86l-342 -214l-342 214v-86l342 -212zM854 726q34 0 59 -26t25 -60v-512q0 -34 -25 -60t-59 -26h-684q-34 0 -59 26t-25 60v512q0 34 25 60t59 26h684z" />
    <glyph glyph-name="uniE6FF" unicode="&#xe6ff;" 
d="M682 214v84h-128v128h-84v-128h-128v-84h128v-128h84v128h128zM380 640v-86h264v86q0 54 -39 93t-93 39t-93 -39t-39 -93zM768 554q34 0 60 -25t26 -59v-428q0 -34 -26 -59t-60 -25h-512q-34 0 -60 25t-26 59v428q0 34 26 59t60 25h42v86q0 88 63 151t151 63t151 -63
t63 -151v-86h42z" />
    <glyph glyph-name="uniE700" unicode="&#xe700;" 
d="M682 512h172v-470h-172v470zM170 42v342h172v-342h-172zM426 42v684h172v-684h-172z" />
    <glyph glyph-name="uniE701" unicode="&#xe701;" 
d="M554 342v256h-84v-256h84zM554 170v86h-84v-86h84zM512 810q176 0 301 -125t125 -301t-125 -301t-301 -125t-301 125t-125 301t125 301t301 125z" />
    <glyph glyph-name="uniE702" unicode="&#xe702;" 
d="M512 42q140 0 241 101t101 241t-101 241t-241 101t-241 -101t-101 -241t101 -241t241 -101zM512 810q176 0 301 -125t125 -301t-125 -301t-301 -125t-301 125t-125 301t125 301t301 125zM470 598h84v-256h-84v256zM470 256h84v-86h-84v86z" />
    <glyph glyph-name="uniE703" unicode="&#xe703;" 
d="M810 86v468h-596v-468h596zM682 854h86v-86h42q34 0 60 -26t26 -60v-596q0 -34 -26 -60t-60 -26h-596q-36 0 -61 26t-25 60v596q0 34 25 60t61 26h42v86h86v-86h340v86zM726 384v-214h-214v214h214z" />
    <glyph glyph-name="uniE704" unicode="&#xe704;" 
d="M554 470v170h-84v-170h84zM554 298v86h-84v-86h84zM854 810q34 0 59 -25t25 -59v-512q0 -34 -25 -60t-59 -26h-598l-170 -170v768q0 34 25 59t59 25h684z" />
    <glyph glyph-name="uniE705" unicode="&#xe705;" 
d="M896 406v42q0 28 -18 46t-46 18h-150v-256h64v86h50l36 -86h64l-38 90q38 18 38 60zM538 256l76 256h-64l-44 -146l-42 146h-64l74 -256h64zM342 320v128q0 28 -19 46t-45 18h-150v-256h150q26 0 45 18t19 46zM896 768q36 0 61 -25t25 -61v-596q0 -34 -25 -60t-61 -26
h-768q-36 0 -61 26t-25 60v596q0 36 25 61t61 25h768zM192 448h86v-128h-86v128zM746 448h86v-42h-86v42z" />
    <glyph glyph-name="uniE706" unicode="&#xe706;" 
d="M170 384q0 140 101 241t241 101t241 -101t101 -241t-101 -241t-241 -101t-241 101t-101 241z" />
    <glyph glyph-name="uniE707" unicode="&#xe707;" 
d="M874 298v214h-52v-192h-48v150h-54v-150h-48v192h-54v-214q0 -18 13 -30t31 -12h170q18 0 30 12t12 30zM576 458v54h-170v-256h170v54h-106v46h106v54h-106v48h106zM362 256v256h-52v-150l-108 150h-52v-256h52v150l110 -150h50zM854 726q36 0 60 -25t24 -61v-512
q0 -36 -24 -61t-60 -25h-684q-36 0 -60 25t-24 61v512q0 36 24 61t60 25h684z" />
    <glyph glyph-name="uniE708" unicode="&#xe708;" 
d="M505 836q-3 -2 -10 -9.5t-7 -10t-46 -97t-48 -101.5q-2 -5 -4 -8q-2 -2 -13 -26q-12 -24 -18 -29q-8 -6 -30.5 -9.5t-168.5 -19.5q-97 -11 -103 -16q-3 -3 -4 -10.5t1 -12.5q2 -4 85 -80q9 -9 27 -25q81 -75 94.5 -88.5t13.5 -18.5q-1 -1 -1 -2q0 -8 -6 -40
q-4 -20 -18 -94q-12 -63 -17 -89q-11 -56 -12 -67.5t5 -17.5q9 -10 37 5q21 10 62 35q32 18 43 24q14 8 35 21q20 12 21 12t14.5 8.5t15 8.5t17.5 9q32 20 47 17q9 -2 23 -9q62 -33 196 -113q27 -16 38 -20.5t20 -1.5q11 3 7 37q-2 18 -4 26q-2 10 -26 138q-5 34 -4 40.5
t14 11.5q34 14 32 22q-2 2 -44 -5q-57 -11 -118 -17q-89 -8 -199 -4q-128 4 -137 10q-2 1 -1 5.5t4.5 7.5t71.5 51q185 132 196 141q8 8 1 11q-6 2 -36 5q-77 10 -201 16q-67 3 -77 5q-13 2 6 6q68 13 209 17h45q100 -3 169 -12q29 -4 34.5 -5.5t5.5 -4.5q0 -2 -13.5 -12
t-79.5 -56q-16 -11 -35 -24t-34 -23t-18 -13q-20 -14 -25 -17q-37 -25 -62 -44q-13 -9 -13 -12q0 -5 43 -10q64 -8 154 -11t96 2q2 2 -1 16q-4 14 -4 16q0 5 86 85q99 93 117 111t18 25q0 15 -17 19q-8 2 -68 8q-34 3 -78 7q-6 1 -25.5 3t-26.5 3q-87 9 -93 11
q-7 4 -20.5 31.5t-61.5 135.5q-49 111 -56 117q-10 9 -20 5z" />
    <glyph glyph-name="uniE709" unicode="&#xe709;" 
d="M370 719q-32 -89 -76 -150q-15 -22 -34 -41l-14 -14l40 -23l40 -23l9 9q22 22 46 51l8 11l24 10q21 9 26 11l3 1l-4 -8q-39 -70 -77 -114q-9 -11 -9 -12t24 -21l24 -21h-25l-25 -1v-57h163v-138l-11 1q-36 2 -48 16q-14 15 -9 62q2 17 2 22v4h-56q-57 0 -59 -1
q-5 -4 -6 -41q-1 -33 5 -57q17 -67 81 -81q11 -3 55 -2q44 0 62 2q112 12 184 61q13 8 13.5 7.5t8 -29.5t8 -29.5t46.5 19t45.5 20.5t-31 76t-30.5 75.5t-37 -10.5l-38 -12q-1 -1 6 -26l7 -26q0 -4 -30 -19q-29 -14 -34 -14q-1 0 -1 60v60h160v57h-160v72h161v57h-284l6 8
q13 16 24.5 34.5t9.5 19.5q0 1 -22 7q-21 6 -23 6q-6 3 76 26q11 3 21 6q107 26 164 8q21 -7 36 -23q11 -10 16 -20q8 -17 10 -38q2 -10 1 -194v-183l-3 -10q-8 -26 -25 -41q-26 -24 -74 -24q-14 0 -48 7q-35 8 -35.5 7t-8 -32t-7.5 -32q0 -3 25 -8q42 -8 92 -9q48 0 78 8
q115 29 130 148q7 52 9 133q5 134 -13 240q-5 32 -21 55q-35 49 -109 69t-178 8q-85 -10 -176 -35q-11 -3 -11.5 -2.5t7.5 13.5q22 40 19 42q0 1 -56.5 17t-58.5 16q-1 0 -8 -21zM513 420v-36h-111l35 36l35 36h20h21v-36zM191 726q-24 -5 -41.5 -20.5t-22.5 -36.5
q-5 -18 1 -37q12 -39 54.5 -51t77.5 13q32 22 32 58q0 28 -22 50q-18 18 -43 23q-7 2 -18.5 2t-17.5 -1zM113 508q-25 -39 -26 -41q0 -2 48 -31q48 -30 55 -35t15 -12q39 -40 1 -97q-37 -54 -135 -146q-23 -22 -23 -23t62 -39.5t63.5 -38.5t3.5 5q11 27 58 124q23 49 28 62
q23 57 31 103q1 9 1 27q0 19 -3 28q-4 18 -15 33q-5 7 -29 30.5t-38 35.5q-11 9 -39.5 31t-30.5 22q-2 1 -27 -38z" />
    <glyph glyph-name="uniE70A" unicode="&#xe70a;" 
d="M640 512v86h-256v-428h256v86h-170v86h170v84h-170v86h170zM810 768q34 0 60 -26t26 -60v-596q0 -34 -26 -60t-60 -26h-596q-34 0 -60 26t-26 60v596q0 34 26 60t60 26h596z" />
    <glyph glyph-name="uniE70B" unicode="&#xe70b;" 
d="M606 290l162 350l-350 -162l-162 -350zM512 810q176 0 301 -125t125 -301t-125 -301t-301 -125t-301 125t-125 301t125 301t301 125zM512 430q20 0 33 -13t13 -33t-13 -33t-33 -13t-33 13t-13 33t13 33t33 13z" />
    <glyph glyph-name="uniE70C" unicode="&#xe70c;" 
d="M854 42v684l-684 -684h684zM214 682v-84h256v84h-256zM854 810q34 0 59 -25t25 -59v-684q0 -34 -25 -59t-59 -25h-684q-34 0 -59 25t-25 59v684q0 34 25 59t59 25h684zM640 170h-86v86h86v86h86v-86h84v-86h-84v-84h-86v84z" />
    <glyph glyph-name="uniE711" unicode="&#xe711;" 
d="M598 464q0 80 -22 114q-8 12 -28 24q-14 8 -36 8t-36 -8q-20 -12 -28 -24q-22 -34 -22 -114v-114q0 -112 50 -142q14 -8 36 -8q42 0 64 34q24 36 24 116v114h-2zM336 450q0 232 176 232q130 0 164 -124q14 -52 14 -108v-88h-2q0 -118 -48 -180q-28 -32 -56 -42
q-32 -12 -72 -12t-72 12q-28 10 -56 42q-48 54 -48 180v88z" />
    <glyph glyph-name="uniE712" unicode="&#xe712;" 
d="M874 426q44 0 76 -31t32 -75t-32 -75t-76 -31h-64v-172q0 -34 -25 -59t-59 -25h-162v64q0 48 -34 81t-82 33t-82 -33t-34 -81v-64h-162q-34 0 -59 25t-25 59v162h64q48 0 81 34t33 82t-33 82t-81 34h-64v162q0 34 25 59t59 25h172v64q0 44 31 76t75 32t75 -32t31 -76v-64
h172q34 0 59 -25t25 -59v-172h64z" />
    <glyph glyph-name="uniE713" unicode="&#xe713;" 
d="M512 42q140 0 241 101t101 241q0 44 -14 96q-38 -10 -96 -10q-220 0 -348 180q-66 -160 -224 -230q-2 -12 -2 -36q0 -140 101 -241t241 -101zM512 810q176 0 301 -125t125 -301t-125 -301t-301 -125t-301 125t-125 301t125 301t301 125zM640 394q22 0 38 -15t16 -37
t-16 -38t-38 -16t-38 16t-16 38t16 37t38 15zM384 394q22 0 38 -15t16 -37t-16 -38t-38 -16t-38 16t-16 38t16 37t38 15z" />
    <glyph glyph-name="uniE714" unicode="&#xe714;" 
d="M554 640l364 -256l-364 -256v512zM170 128v512l364 -256z" />
    <glyph glyph-name="uniE715" unicode="&#xe715;" 
d="M490 384l364 256v-512zM470 128l-364 256l364 256v-512z" />
    <glyph glyph-name="uniE716" unicode="&#xe716;" 
d="M512 -14l-62 56q-106 96 -154 142t-107 114t-81 123t-22 113q0 98 67 166t167 68q116 0 192 -90q76 90 192 90q100 0 167 -68t67 -166q0 -78 -52 -162t-113 -146t-199 -186z" />
    <glyph glyph-name="uniE717" unicode="&#xe717;" 
d="M516 104q96 86 142 130t100 104t75 106t21 90q0 64 -43 106t-107 42q-50 0 -93 -28t-59 -72h-80q-16 44 -59 72t-93 28q-64 0 -107 -42t-43 -106q0 -44 21 -90t75 -106t100 -104t142 -130l4 -4zM704 768q100 0 167 -68t67 -166q0 -58 -22 -113t-81 -123t-107 -114
t-154 -142l-62 -56l-62 54q-138 124 -199 186t-113 146t-52 162q0 98 67 166t167 68q116 0 192 -90q76 90 192 90z" />
    <glyph glyph-name="uniE718" unicode="&#xe718;" 
d="M512 512q52 0 90 -38t38 -90t-38 -90t-90 -38t-90 38t-38 90t38 90t90 38zM810 86v170h86v-170q0 -34 -26 -60t-60 -26h-170v86h170zM810 768q34 0 60 -26t26 -60v-170h-86v170h-170v86h170zM214 682v-170h-86v170q0 34 26 60t60 26h170v-86h-170zM214 256v-170h170v-86
h-170q-34 0 -60 26t-26 60v170h86z" />
    <glyph glyph-name="uniE719" unicode="&#xe719;" horiz-adv-x="1025" 
d="M810 128q52 0 90 38t38 90t-38 90t-90 38h-64v22q0 98 -68 166t-166 68q-116 0 -188 -94q82 -22 135 -91t53 -157h-86q0 70 -50 121t-120 51t-120 -51t-50 -121t50 -120t120 -50h554zM826 468q82 -6 140 -67t58 -145q0 -88 -63 -151t-151 -63h-554q-106 0 -181 75
t-75 181q0 98 66 171t162 83q42 78 118 126t166 48q116 0 204 -73t110 -185z" />
    <glyph glyph-name="uniE71A" unicode="&#xe71a;" 
d="M768 554h-512v-426h512v426zM854 42v598h-192l-148 150l-150 -150h-194v-598h684zM854 726q34 0 59 -26t25 -60v-598q0 -34 -25 -59t-59 -25h-684q-34 0 -59 25t-25 59v598q0 34 25 60t59 26h172l170 170l170 -170h172z" />
    <glyph glyph-name="uniE71B" unicode="&#xe71b;" 
d="M598 640l384 -512h-940l256 342l192 -256l68 50l-120 162z" />
    <glyph glyph-name="uniE71C" unicode="&#xe71c;" 
d="M854 256v256h-54v-150l-106 150h-54v-256h54v150l108 -150h52zM534 256v256h-64v-256h64zM384 406v42q0 28 -18 46t-46 18h-150v-256h64v86h86q28 0 46 19t18 45zM854 726q36 0 60 -25t24 -61v-512q0 -36 -24 -61t-60 -25h-684q-36 0 -60 25t-24 61v512q0 36 24 61t60 25
h684zM234 448h86v-42h-86v42z" />
    <glyph glyph-name="uniE71D" unicode="&#xe71d;" 
d="M726 714q112 -28 184 -120t72 -210t-72 -210t-184 -120v88q76 26 123 92t47 150t-47 150t-123 92v88zM42 384q0 140 101 241t241 101t241 -101t101 -241t-101 -241t-241 -101t-241 101t-101 241z" />
    <glyph glyph-name="uniE71E" unicode="&#xe71e;" 
d="M214 128h596v-86h-596v86zM810 512l-298 -298l-298 298h170v256h256v-256h170z" />
    <glyph glyph-name="uniE71F" unicode="&#xe71f;" 
d="M214 128h596v-86h-596v86zM384 214v256h-170l298 298l298 -298h-170v-256h-256z" />
    <glyph glyph-name="uniE720" unicode="&#xe720;" 
d="M896 170v598h-598v-598h598zM896 854q34 0 60 -26t26 -60v-598q0 -34 -26 -59t-60 -25h-598q-34 0 -59 25t-25 59v598q0 34 25 60t59 26h598zM128 682v-682h682v-86h-682q-34 0 -60 26t-26 60v682h86zM680 456l152 -200h-470l118 150l84 -100z" />
    <glyph glyph-name="uniE721" unicode="&#xe721;" 
d="M896 170v598h-598v-598h598zM896 854q34 0 60 -26t26 -60v-598q0 -34 -26 -59t-60 -25h-598q-34 0 -59 25t-25 59v598q0 34 25 60t59 26h598zM598 256v342h-86v84h170v-426h-84zM128 682v-682h682v-86h-682q-34 0 -60 26t-26 60v682h86z" />
    <glyph glyph-name="uniE722" unicode="&#xe722;" 
d="M726 342v-86h-256v170q0 36 25 61t59 25h86v86h-170v84h170q36 0 61 -24t25 -60v-86q0 -36 -26 -61t-60 -25h-86v-84h172zM896 170v598h-598v-598h598zM896 854q34 0 60 -26t26 -60v-598q0 -34 -26 -59t-60 -25h-598q-34 0 -59 25t-25 59v598q0 34 25 60t59 26h598z
M128 682v-682h682v-86h-682q-34 0 -60 26t-26 60v682h86z" />
    <glyph glyph-name="uniE723" unicode="&#xe723;" 
d="M726 342q0 -36 -26 -61t-60 -25h-170v86h170v84h-86v86h86v86h-170v84h170q36 0 61 -24t25 -60v-64q0 -26 -19 -45t-45 -19q26 0 45 -19t19 -45v-64zM128 682v-682h682v-86h-682q-34 0 -60 26t-26 60v682h86zM896 170v598h-598v-598h598zM896 854q34 0 60 -26t26 -60
v-598q0 -34 -26 -59t-60 -25h-598q-34 0 -59 25t-25 59v598q0 34 25 60t59 26h598z" />
    <glyph glyph-name="uniE724" unicode="&#xe724;" 
d="M896 170v598h-598v-598h598zM896 854q34 0 60 -26t26 -60v-598q0 -34 -26 -59t-60 -25h-598q-34 0 -59 25t-25 59v598q0 34 25 60t59 26h598zM640 256v170h-170v256h84v-170h86v170h86v-426h-86zM128 682v-682h682v-86h-682q-34 0 -60 26t-26 60v682h86z" />
    <glyph glyph-name="uniE725" unicode="&#xe725;" 
d="M726 342q0 -36 -26 -61t-60 -25h-170v86h170v84h-170v256h256v-84h-172v-86h86q34 0 60 -25t26 -61v-84zM128 682v-682h682v-86h-682q-34 0 -60 26t-26 60v682h86zM896 170v598h-598v-598h598zM896 854q34 0 60 -26t26 -60v-598q0 -34 -26 -59t-60 -25h-598q-34 0 -59 25
t-25 59v598q0 34 25 60t59 26h598z" />
    <glyph glyph-name="uniE726" unicode="&#xe726;" 
d="M554 426v-84h86v84h-86zM554 256q-34 0 -59 25t-25 61v256q0 36 25 60t59 24h172v-84h-172v-86h86q34 0 60 -25t26 -61v-84q0 -36 -26 -61t-60 -25h-86zM896 170v598h-598v-598h598zM896 854q34 0 60 -26t26 -60v-598q0 -34 -26 -59t-60 -25h-598q-34 0 -59 25t-25 59
v598q0 34 25 60t59 26h598zM128 682v-682h682v-86h-682q-34 0 -60 26t-26 60v682h86z" />
    <glyph glyph-name="uniE727" unicode="&#xe727;" 
d="M554 256h-84l170 342h-170v84h256v-84zM896 170v598h-598v-598h598zM896 854q34 0 60 -26t26 -60v-598q0 -34 -26 -59t-60 -25h-598q-34 0 -59 25t-25 59v598q0 34 25 60t59 26h598zM128 682v-682h682v-86h-682q-34 0 -60 26t-26 60v682h86z" />
    <glyph glyph-name="uniE728" unicode="&#xe728;" 
d="M554 426v-84h86v84h-86zM554 598v-86h86v86h-86zM554 256q-34 0 -59 25t-25 61v64q0 26 19 45t45 19q-26 0 -45 19t-19 45v64q0 36 25 60t59 24h86q36 0 61 -24t25 -60v-64q0 -26 -19 -45t-45 -19q26 0 45 -19t19 -45v-64q0 -36 -26 -61t-60 -25h-86zM896 170v598h-598
v-598h598zM896 854q34 0 60 -26t26 -60v-598q0 -34 -26 -59t-60 -25h-598q-34 0 -59 25t-25 59v598q0 34 25 60t59 26h598zM128 682v-682h682v-86h-682q-34 0 -60 26t-26 60v682h86z" />
    <glyph glyph-name="uniE729" unicode="&#xe729;" 
d="M640 512v86h-86v-86h86zM640 682q36 0 61 -24t25 -60v-256q0 -36 -26 -61t-60 -25h-170v86h170v84h-86q-34 0 -59 25t-25 61v86q0 36 25 60t59 24h86zM896 170v598h-598v-598h598zM896 854q34 0 60 -26t26 -60v-598q0 -34 -26 -59t-60 -25h-598q-34 0 -59 25t-25 59v598
q0 34 25 60t59 26h598zM128 682v-682h682v-86h-682q-34 0 -60 26t-26 60v682h86z" />
    <glyph glyph-name="uniE72A" unicode="&#xe72a;" 
d="M896 512v256h-598v-598h598v256h-86v-84h-84v84h-86v86h86v86h84v-86h86zM896 854q34 0 60 -26t26 -60v-598q0 -34 -26 -59t-60 -25h-598q-34 0 -59 25t-25 59v598q0 34 25 60t59 26h598zM470 512h42v42h-42v-42zM598 384q0 -36 -26 -61t-60 -25h-128v86h128v42h-42
q-34 0 -60 25t-26 61v42q0 36 26 61t60 25h42q34 0 60 -25t26 -61v-170zM128 682v-682h682v-86h-682q-34 0 -60 26t-26 60v682h86z" />
    <glyph glyph-name="uniE72B" unicode="&#xe72b;" 
d="M810 86v596h-298v-256zM810 768q34 0 60 -26t26 -60v-596q0 -34 -26 -60t-60 -26h-596q-34 0 -60 26t-26 60v596q0 34 26 60t60 26h596zM512 426l-298 -340h298v340z" />
    <glyph glyph-name="uniE72C" unicode="&#xe72c;" 
d="M942 484q6 -26 -7 -48t-39 -30q-248 -66 -412 -110l-226 -60l-68 -20l-112 192l62 16l84 -64l212 56l-176 306l82 22l294 -274l228 60q26 8 49 -6t29 -40zM106 86h812v-86h-812v86z" />
    <glyph glyph-name="uniE72D" unicode="&#xe72d;" 
d="M810 0v86h86q0 -34 -26 -60t-60 -26zM810 342v84h86v-84h-86zM640 682v86h86v-86h-86zM810 170v86h86v-86h-86zM470 -86v940h84v-940h-84zM810 768q34 0 60 -26t26 -60h-86v86zM128 682q0 34 26 60t60 26h170v-86h-170v-596h170v-86h-170q-34 0 -60 26t-26 60v596z
M810 512v86h86v-86h-86zM640 0v86h86v-86h-86z" />
    <glyph glyph-name="uniE72E" unicode="&#xe72e;" 
d="M640 170v86h86v-86h-86zM640 682v86h86v-86h-86zM214 598v-512h512v-86h-512q-36 0 -61 26t-25 60v512h86zM810 170v86h86q0 -34 -26 -60t-60 -26zM810 512v86h86v-86h-86zM810 342v84h86v-84h-86zM384 170q-36 0 -61 26t-25 60h86v-86zM554 768v-86h-84v86h84zM810 768
q34 0 60 -26t26 -60h-86v86zM554 256v-86h-84v86h84zM384 768v-86h-86q0 34 25 60t61 26zM384 426v-84h-86v84h86zM384 598v-86h-86v86h86z" />
    <glyph glyph-name="uniE72F" unicode="&#xe72f;" 
d="M298 0v86h86v-86h-86zM470 0v86h84v-86h-84zM810 256v426h-426v-426h426zM810 768q34 0 60 -26t26 -60v-426q0 -34 -26 -60t-60 -26h-426q-36 0 -61 26t-25 60v426q0 34 25 60t61 26h426zM640 0v86h86v-86h-86zM128 512v86h86v-86h-86zM214 0q-36 0 -61 26t-25 60h86v-86
zM128 170v86h86v-86h-86zM128 342v84h86v-84h-86z" />
    <glyph glyph-name="uniE730" unicode="&#xe730;" 
d="M426 726l86 -86h342q34 0 59 -26t25 -60v-426q0 -34 -25 -60t-59 -26h-684q-34 0 -59 26t-25 60v512q0 34 25 60t59 26h256z" />
    <glyph glyph-name="uniE731" unicode="&#xe731;" 
d="M256 342v84h512v-84h-512zM128 640h768v-86h-768v86zM426 128v86h172v-86h-172z" />
    <glyph glyph-name="uniE732" unicode="&#xe732;" 
d="M896 170v598h-598v-598h598zM896 854q34 0 60 -26t26 -60v-598q0 -34 -26 -59t-60 -25h-598q-34 0 -59 25t-25 59v598q0 34 25 60t59 26h598zM128 682v-682h682v-86h-682q-34 0 -60 26t-26 60v682h86z" />
    <glyph glyph-name="uniE733" unicode="&#xe733;" 
d="M242 54l60 60q74 -56 168 -68v-86q-126 12 -228 94zM554 46q94 12 166 68l62 -60q-102 -82 -228 -94v86zM782 174q56 76 68 166h86q-12 -124 -94 -226zM640 384q0 -52 -38 -90t-90 -38t-90 38t-38 90t38 90t90 38t90 -38t38 -90zM174 342q12 -94 68 -166l-60 -62
q-82 102 -94 228h86zM242 594q-56 -74 -68 -168h-86q12 126 94 228zM850 426q-12 94 -68 168l60 60q82 -102 94 -228h-86zM782 714l-60 -60q-74 56 -168 68v86q126 -12 228 -94zM470 722q-94 -12 -168 -68l-60 60q102 82 228 94v-86z" />
    <glyph glyph-name="uniE734" unicode="&#xe734;" 
d="M512 214q70 0 120 50t50 120t-50 120t-120 50t-120 -50t-50 -120t50 -120t120 -50zM98 146q0 76 45 145t119 93l-36 18q-60 36 -94 95t-34 125q128 74 256 0q18 -8 34 -22q-4 28 -4 40q0 70 35 129t93 93q58 -34 93 -93t35 -129q0 -12 -4 -40q16 14 34 22q128 74 256 0
q0 -66 -34 -125t-94 -95q-4 -2 -11 -6t-13 -7t-12 -5q6 -2 12 -5t13 -7t11 -6q60 -36 94 -95t34 -125q-128 -74 -256 0q-18 8 -34 22q4 -28 4 -40q0 -70 -35 -129t-93 -93q-58 34 -93 93t-35 129q0 12 4 40q-16 -14 -34 -22q-128 -74 -256 0z" />
    <glyph glyph-name="uniE735" unicode="&#xe735;" 
d="M384 342q0 52 38 90t90 38t90 -38t38 -90t-38 -90t-90 -38t-90 38t-38 90zM854 60l-164 164q36 56 36 118q0 88 -63 150t-151 62t-151 -62t-63 -150t63 -151t151 -63q62 0 118 36l188 -190q-22 -16 -50 -16h-512q-34 0 -60 25t-26 59l2 684q0 34 25 59t59 25h342
l256 -256v-494z" />
    <glyph glyph-name="uniE736" unicode="&#xe736;" 
d="M710 250l206 -208l-62 -62l-208 206q-80 -58 -176 -58q-124 0 -212 88l-88 -88v256h256l-108 -108q62 -62 152 -62q78 0 135 48t73 122h86q-8 -72 -54 -134zM470 640q-78 0 -136 -48t-74 -122h-86q16 108 100 182t196 74q122 0 210 -88l88 88v-256h-256l108 108
q-62 62 -150 62z" />
    <glyph glyph-name="uniE737" unicode="&#xe737;" 
d="M636 -42h-6q-92 24 -158 90q-92 92 -92 222q0 52 38 89t92 37t93 -37t39 -89q0 -34 25 -58t63 -24t64 24t26 58q0 120 -91 206t-219 86q-92 0 -168 -47t-114 -125q-24 -50 -24 -120q0 -80 28 -154q6 -20 -14 -26t-26 12q-32 90 -32 168t30 138q42 90 129 144t191 54
q146 0 249 -99t103 -237q0 -52 -39 -88t-93 -36t-92 36t-38 88q0 34 -26 59t-64 25t-63 -25t-25 -59q0 -112 80 -192q56 -56 140 -78q18 -2 14 -26q-4 -16 -20 -16zM530 270q0 -74 55 -128t137 -54q4 0 18 2t23 2t18 -3t11 -13q4 -22 -18 -26q-24 -4 -52 -4q-80 0 -132 38
q-102 70 -102 186q0 22 22 22q20 0 20 -22zM416 -34q-8 0 -14 6q-54 54 -86 114q-46 80 -46 184q0 94 71 162t171 68t171 -68t71 -162q0 -20 -22 -20t-22 20q0 78 -58 133t-140 55t-140 -55t-58 -133q0 -96 38 -164q26 -46 80 -104q16 -14 0 -30q-6 -6 -16 -6zM150 482
q-14 0 -20 10t2 22q64 92 160 140q100 52 220 52t220 -52q98 -48 160 -138q12 -20 -6 -30q-20 -12 -30 6q-54 78 -144 124q-92 46 -200 47t-200 -47q-90 -46 -146 -126q-6 -8 -16 -8zM760 706q-8 0 -10 2q-118 60 -238 60q-130 0 -238 -60q-12 -6 -21 1t-9 18t10 19
q116 64 258 64q130 0 258 -64q14 -8 10 -24t-20 -16z" />
    <glyph glyph-name="uniE738" unicode="&#xe738;" 
d="M878 262l60 -62l-90 -90l60 -62l-60 -60l-62 60l-90 -90l-62 60l-60 -60l-62 60l152 152l-366 366l-152 -152l-60 62l60 60l-60 62l90 90l-60 62l60 60l62 -60l90 90l62 -60l60 60l62 -60l-152 -152l366 -366l152 152l60 -62z" />
    <glyph glyph-name="uniE739" unicode="&#xe739;" 
d="M614 640h240v-426h-300l-16 84h-240v-298h-84v726h384z" />
    </font>
</defs>
</svg>
